<?xml version="1.0" standalone="no"?>
<!DOCTYPE svg PUBLIC "-//W3C//DTD SVG 1.1//EN" "http://www.w3.org/Graphics/SVG/1.1/DTD/svg11.dtd" >
<svg xmlns="http://www.w3.org/2000/svg">
<metadata>
This is a custom SVG webfont generated by Font Squirrel.
Copyright   : Copyright c 2011 by Vissol Ltd All rights reserved
Designer    : Joe Prince
Foundry     : Joe Prince
</metadata>
<defs>
<font id="webfontNOU7iUTL" horiz-adv-x="1441" >
<font-face units-per-em="2048" ascent="1638" descent="-410" />
<missing-glyph horiz-adv-x="692" />
<glyph unicode=" "  horiz-adv-x="692" />
<glyph unicode="&#x09;" horiz-adv-x="692" />
<glyph unicode="&#xa0;" horiz-adv-x="692" />
<glyph unicode="!" horiz-adv-x="825" d="M303 227h240v-227h-240v227zM283 1366h280l-45 -973h-190z" />
<glyph unicode="&#x22;" horiz-adv-x="825" d="M166 1384h205l-35 -411h-133zM461 1384h205l-35 -411h-133z" />
<glyph unicode="#" horiz-adv-x="1216" d="M1094 700h-158l-51 -292h153v-152h-178l-39 -217h-162l39 217h-231l-37 -217h-162l39 217h-155v152h180l51 292h-174v152h201l36 217h162l-39 -217h232l39 217h159l-38 -217h133v-152zM725 408l49 292h-229l-51 -292h231z" />
<glyph unicode="$" horiz-adv-x="1181" d="M1090 362q0 -154 -121 -257t-299 -117v-209h-119v209q-219 14 -383 114v250q174 -129 383 -131v379q-76 23 -117 37t-104.5 47t-96 70t-58 97t-25.5 136q0 174 111.5 273.5t289.5 119.5v209h119v-207q168 -6 334 -92v-239q-160 102 -334 104v-340q74 -23 120 -39 t109.5 -53t100 -81t63.5 -116t27 -164zM395 993q0 -53 39 -84.5t117 -58.5v293q-156 -33 -156 -150zM670 229q174 27 174 150q0 121 -174 184v-334z" />
<glyph unicode="%" horiz-adv-x="1777" d="M1239 1366h174l-858 -1366h-174zM434 1360q291 0 291 -377t-291 -377q-289 0 -289 377t289 377zM434.5 758q57.5 0 93 46t35.5 179q0 135 -35.5 180t-93 45t-93.5 -45t-36 -180q0 -133 36 -179t93.5 -46zM1354 760q291 0 291 -377t-291 -377q-289 0 -289 377t289 377z M1353.5 158q57.5 0 93.5 46t36 179q0 135 -36 180t-93.5 45t-93 -45t-35.5 -180q0 -133 35.5 -179t93 -46z" />
<glyph unicode="&#x26;" horiz-adv-x="1310" d="M1036 291l244 -291h-262l-105 129q-152 -145 -364 -145q-113 0 -201 41t-137 103t-73.5 130t-24.5 131q0 53 7 94t31.5 96.5t79 108.5t138.5 103q-125 131 -125 249q0 137 85 235.5t240 98.5q139 0 232.5 -92t93.5 -227q0 -104 -50 -174t-173 -152l229 -274q29 72 43 155 h201q-29 -180 -109 -319zM571.5 1194q-55.5 0 -94.5 -39t-39 -96q0 -14 5.5 -31.5t10.5 -29t18 -32t20 -27.5l24 -30q18 -23 23 -26q96 57 129.5 97t33.5 87q0 53 -37.5 90t-93 37zM553 170q135 0 242 106l-301 361q-66 -35 -108 -72t-57.5 -72.5t-18.5 -56t-3 -53.5 q0 -39 17.5 -83t77 -87t151.5 -43z" />
<glyph unicode="'" horiz-adv-x="534" d="M166 1384h205l-35 -411h-133z" />
<glyph unicode="(" horiz-adv-x="751" d="M614 1483q-211 -416 -211 -856q0 -436 211 -858h-213q-211 422 -211 858q0 440 211 856h213z" />
<glyph unicode=")" horiz-adv-x="751" d="M133 -231q211 412 211 858q0 449 -211 856h213q211 -416 211 -856q0 -436 -211 -858h-213z" />
<glyph unicode="*" horiz-adv-x="845" d="M684 1247l-166 -57l166 -57l-78 -140l-123 105l25 -156h-160l25 156l-123 -105l-78 140l166 57l-166 57l78 139l123 -104l-25 156h160l-25 -156l123 104z" />
<glyph unicode="+" horiz-adv-x="1128" d="M653 977v-275h273v-182h-273v-270h-182v270h-272v182h272v275h182z" />
<glyph unicode="," horiz-adv-x="677" d="M303 172h215l-182 -401h-184z" />
<glyph unicode="-" horiz-adv-x="950" d="M162 707h624v-193h-624v193z" />
<glyph unicode="." horiz-adv-x="759" d="M500 227v-227h-240v227h240z" />
<glyph unicode="/" horiz-adv-x="897" d="M723 1548h205l-754 -1749h-203z" />
<glyph unicode="0" horiz-adv-x="1345" d="M671.5 1378q538.5 0 538.5 -700.5t-538.5 -700.5t-538.5 700.5t538.5 700.5zM671.5 184q59.5 0 104.5 16.5t92 64.5t72 152.5t25 260.5q0 125 -17.5 218t-45.5 144.5t-68.5 82t-77.5 39.5t-84 9t-84 -9t-78 -39.5t-68.5 -82t-45 -144.5t-17.5 -218q0 -156 24.5 -260.5 t71.5 -152.5t92 -64.5t104.5 -16.5z" />
<glyph unicode="1" horiz-adv-x="993" d="M477 1366h223v-1366h-245v1085l-244 -149v262z" />
<glyph unicode="2" horiz-adv-x="1226" d="M567 244h494v-244h-903v201q94 70 192.5 154.5t205 193t174 222.5t67.5 204q0 70 -56.5 117t-185.5 47q-100 0 -205.5 -34t-179.5 -85v244q197 121 395 120q242 0 358.5 -120.5t116.5 -288.5q0 -182 -137 -373.5t-336 -357.5z" />
<glyph unicode="3" horiz-adv-x="1228" d="M842 737q104 -37 167.5 -121t63.5 -204q0 -96 -32.5 -172t-85 -123t-123 -78t-138 -43t-139.5 -12q-203 0 -389 100v250q180 -106 373 -107q291 0 290 189q0 90 -68.5 148.5t-230.5 58.5h-174v202h181q115 0 171 47.5t56 116.5q0 82 -73 116t-169 34q-178 0 -327 -90v251 q178 84 342 84q205 0 339 -92t134 -295q0 -168 -168 -260z" />
<glyph unicode="4" horiz-adv-x="1234" d="M934 604h178v-219h-178v-385h-246v385h-610v203l622 778h234v-762zM365 604h323v420z" />
<glyph unicode="5" horiz-adv-x="1245" d="M244 1366h751v-244h-542q-4 -51 -12.5 -126.5t-12.5 -123.5q96 18 184 18.5t162 -19t146.5 -66.5t113.5 -141.5t41 -227.5q0 -135 -41 -229t-110.5 -140.5t-143 -65.5t-162.5 -19q-227 0 -415 96v248q190 -121 401 -121q238 0 227 231q-10 219 -223 223q-180 2 -301 -73 l-137 123z" />
<glyph unicode="6" horiz-adv-x="1222" d="M637 913q221 0 342 -120.5t121 -331.5q0 -86 -26.5 -167t-81 -152.5t-152 -114.5t-224.5 -43q-485 0 -485 645q0 195 49 340t117 222t162 123t162.5 58t140.5 12q100 0 235 -38v-218q-82 27 -221 27q-47 0 -98 -12.5t-113.5 -42t-112 -96t-65.5 -160.5q90 69 250 69z M616 201q76 0 128.5 31.5t73 80.5t27.5 84t7 66q0 104 -61.5 166.5t-174.5 62.5q-133 0 -237 -69q-4 -127 18.5 -217.5t64.5 -131.5t78.5 -57t75.5 -16z" />
<glyph unicode="7" horiz-adv-x="1202" d="M141 1366h965v-195l-563 -1171h-291l545 1120h-656v246z" />
<glyph unicode="8" horiz-adv-x="1236" d="M866 733q10 -2 26.5 -8t58.5 -30.5t75 -58.5t59.5 -94.5t26.5 -133.5q0 -199 -129 -311.5t-362.5 -112.5t-362.5 112.5t-129 311.5q0 74 25.5 134t61.5 94t73 57.5t63 31.5l25 8q-8 2 -21.5 7t-48.5 26.5t-61.5 49.5t-48 81t-21.5 119q0 172 119 270t325.5 98t325.5 -98 t119 -270q0 -188 -158 -266zM620.5 1184q-96.5 0 -147.5 -50.5t-51 -123.5q0 -98 59.5 -140.5t139 -42.5t139 42t59.5 141q0 74 -51 124t-147.5 50zM620.5 176q122.5 0 184 63.5t61.5 176.5q0 82 -63.5 141t-182 59t-182 -59t-63.5 -141q0 -111 61.5 -175.5t184 -64.5z" />
<glyph unicode="9" horiz-adv-x="1234" d="M580 455q-221 0 -342 120.5t-121 331.5q0 86 26.5 167t81 152.5t151.5 114.5t224 43q485 0 485 -645q0 -195 -49 -340t-116.5 -222t-161.5 -123t-163 -58t-140 -12q-100 0 -236 39v217q82 -27 221 -27q47 0 98.5 12.5t114 42t111.5 96t65 160.5q-89 -69 -249 -69z M600 1167q-76 0 -128 -31.5t-72.5 -80.5t-27.5 -84t-7 -66q0 -104 61 -166.5t174 -62.5q133 0 238 69q4 127 -18.5 217.5t-64.5 131.5t-79 57t-76 16z" />
<glyph unicode=":" horiz-adv-x="813" d="M528 946v-223h-235v223h235zM528 301v-223h-235v223h235z" />
<glyph unicode=";" horiz-adv-x="858" d="M334 172h215l-182 -401h-185zM557 946v-223h-235v223h235z" />
<glyph unicode="&#x3c;" horiz-adv-x="1351" d="M1096 1004v-211l-617 -242l617 -242v-211l-850 379v148z" />
<glyph unicode="=" horiz-adv-x="1306" d="M260 874h789v-176h-789v176zM260 524h789v-176h-789v176z" />
<glyph unicode="&#x3e;" horiz-adv-x="1329" d="M270 98v211l617 242l-617 242v211l850 -379v-148z" />
<glyph unicode="?" horiz-adv-x="1042" d="M909 985q0 -70 -22.5 -126t-56.5 -92l-72 -74l-73 -72q-34 -35 -56.5 -88.5t-22.5 -118.5v-21h-217v27q0 104 31 184t76 127t89 86t74.5 81t30.5 89q0 182 -221 182q-180 0 -305 -110v227q150 96 321 96q115 0 200 -33.5t132 -92t69.5 -126t22.5 -145.5zM379 227h239 v-227h-239v227z" />
<glyph unicode="@" horiz-adv-x="1869" d="M1047 1237q84 0 174 -22.5t183 -75t165.5 -127t119 -191t46.5 -258.5q0 -207 -92.5 -362.5t-266.5 -155.5q-82 0 -127 54.5t-51 97.5q-27 -66 -101.5 -109t-185.5 -43q-154 0 -242.5 69.5t-88.5 190.5q0 53 17 99.5t62.5 94.5t142.5 76.5t238 28.5q45 0 115 -4 q0 76 -34 114t-140 38q-166 0 -279 -43q4 29 13.5 82t13.5 81q158 51 270 52q166 0 252 -77t86 -226q0 -51 -16 -156t-16 -162q0 -133 92 -133q74 0 147.5 103.5t73.5 289.5q0 127 -53.5 234.5t-137.5 175t-185 105.5t-202 38q-295 0 -522 -224t-227 -527q0 -129 46 -233.5 t111.5 -163t145.5 -97.5t141.5 -52.5t106.5 -13.5q262 0 465 99l-21 -131q-188 -84 -442 -84q-106 0 -217 37.5t-216.5 113.5t-173 214.5t-67.5 316.5q0 184 79 349t205 276.5t282.5 176t310.5 64.5zM911 229q119 0 165 50.5t54 175.5q-27 2 -90 2q-279 0 -278 -148 q-1 -80 149 -80z" />
<glyph unicode="A" d="M1135 0l-125 328h-578l-125 -328h-264l543 1366h270l543 -1366h-264zM516 551h408l-203 536z" />
<glyph unicode="B" horiz-adv-x="1323" d="M981 717q238 -86 238 -316q0 -55 -9.5 -103t-42 -105.5t-85 -97.5t-145.5 -67.5t-218 -27.5h-541v1366h492q94 0 174 -19.5t149.5 -61.5t109.5 -120t40 -184q0 -180 -162 -264zM424 1153v-344h260q213 0 213 164q0 180 -231 180h-242zM707 215q266 0 266 199 q0 178 -275 178h-274v-377h283z" />
<glyph unicode="C" horiz-adv-x="1286" d="M784 205q197 0 392 90v-229q-205 -82 -414 -82q-96 0 -179 16t-170 63.5t-148.5 123t-100.5 202.5t-39 295t39 295t100.5 202.5t148.5 123t170 63.5t179 16q209 0 414 -81v-230q-195 90 -392 90q-92 0 -157.5 -16.5t-128 -63.5t-95 -147t-32.5 -252t32.5 -252t95 -147 t128 -63.5t157.5 -16.5z" />
<glyph unicode="D" horiz-adv-x="1419" d="M649 1366q317 0 481 -174t164 -510q0 -334 -163.5 -508t-481.5 -174h-471v1366h471zM649 223q213 0 306.5 107.5t93.5 351.5q0 246 -93.5 353.5t-306.5 107.5h-225v-920h225z" />
<glyph unicode="E" horiz-adv-x="1204" d="M424 1145v-346h575v-232h-575v-346h663v-221h-909v1366h909v-221h-663z" />
<glyph unicode="F" horiz-adv-x="1142" d="M178 1366h883v-221h-637v-346h551v-232h-551v-567h-246v1366z" />
<glyph unicode="G" horiz-adv-x="1406" d="M707 782h548v-682q-240 -117 -493 -116q-96 0 -179 16t-170 63.5t-148.5 122t-100.5 202.5t-39 294q0 168 39 295t100.5 202.5t148.5 123t170 63.5t179 16q217 0 450 -92v-225q-221 98 -426 98q-72 0 -127 -9t-111 -39t-93 -81t-60.5 -140t-23.5 -210q0 -123 23.5 -212 t60.5 -140t93 -81t111.5 -39t126.5 -9q113 0 242 35v327h-321v217z" />
<glyph unicode="H" horiz-adv-x="1429" d="M1004 1366h245v-1366h-245v567h-580v-567h-246v1366h246v-567h580v567z" />
<glyph unicode="I" horiz-adv-x="600" d="M424 0h-246v1366h246v-1366z" />
<glyph unicode="J" horiz-adv-x="1003" d="M563 1366h246v-909q0 -145 -44 -245.5t-117 -147t-139.5 -63.5t-139.5 -17q-168 0 -310 88v243q125 -102 281 -102q115 0 169 48t54 188v917z" />
<glyph unicode="K" horiz-adv-x="1415" d="M1270 1366l-551 -600l608 -766h-307l-459 592l-137 -150v-442h-246v1366h246v-578l516 578h330z" />
<glyph unicode="L" horiz-adv-x="1124" d="M424 233h657v-233h-903v1366h246v-1133z" />
<glyph unicode="M" horiz-adv-x="1695" d="M1241 1366h272v-1366h-245v1010l-422 -604l-422 604v-1010h-246v1366h273l395 -571z" />
<glyph unicode="N" horiz-adv-x="1587" d="M1159 1366h246v-1366h-275l-706 1020v-1020h-246v1366h279l702 -1012v1012z" />
<glyph unicode="O" horiz-adv-x="1538" d="M762 1382q96 0 179 -16t170 -63.5t149.5 -123t101.5 -202.5t39 -295q0 -166 -39 -294t-101.5 -202.5t-149.5 -122t-170 -63.5t-179 -16t-179 16t-170 63.5t-148.5 122t-100.5 202.5t-39 294q0 168 39 295t100.5 202.5t148.5 123t170 63.5t179 16zM762 199q70 0 121 9 t105 38.5t88 82t56.5 142.5t22.5 213q0 152 -30.5 253t-91 148.5t-122 63.5t-149.5 16q-68 0 -119 -9t-105.5 -39t-88 -81t-56 -140t-22.5 -212q0 -154 30.5 -255t90 -148.5t122 -64.5t148.5 -17z" />
<glyph unicode="P" horiz-adv-x="1277" d="M686 1366q242 0 374 -120t132 -339t-132 -338.5t-374 -119.5h-264v-449h-246v1366h510zM668 672q162 0 221 59.5t59 175.5q0 115 -59.5 173.5t-220.5 58.5h-246v-467h246z" />
<glyph unicode="Q" horiz-adv-x="1529" d="M1403 682q0 -152 -32 -269.5t-84 -193.5t-126 -127t-148.5 -74.5t-160.5 -31.5q0 -94 69.5 -136.5t165.5 -42.5v-188q-438 0 -438 369q-106 14 -193 53t-165 115.5t-122 211t-44 314.5q0 168 39 295t100.5 202.5t148.5 123t171 63.5t180 16t179 -16t170 -63.5t149.5 -123 t101.5 -202.5t39 -295zM764 199q86 0 148.5 16t123 64.5t91 148.5t30.5 254t-30.5 254t-91 148.5t-123 64.5t-148.5 16q-88 0 -149.5 -16t-122 -64.5t-91 -148.5t-30.5 -254t30.5 -254t91 -148.5t122 -64.5t149.5 -16z" />
<glyph unicode="R" horiz-adv-x="1337" d="M909 522l359 -522h-297l-326 481h-221v-481h-246v1366h524q240 0 373 -113.5t133 -324.5q0 -314 -299 -406zM424 707h272q125 0 196 45t71 170q0 127 -71 171t-196 44h-272v-430z" />
<glyph unicode="S" horiz-adv-x="1189" d="M371 991q0 -68 71.5 -106.5t173 -65t204 -66.5t174 -138.5t71.5 -254.5q0 -166 -137 -271t-334 -105q-260 0 -451 116v250q176 -131 394 -131q283 0 282 158q0 70 -51 117t-129 69.5t-167 53t-167 66.5t-129 112.5t-51 189.5q0 197 139 297t348 100q184 0 367 -94v-239 q-158 104 -338 104q-113 0 -191.5 -39t-78.5 -123z" />
<glyph unicode="T" horiz-adv-x="1169" d="M25 1366h1120v-246h-438v-1120h-246v1120h-436v246z" />
<glyph unicode="U" horiz-adv-x="1511" d="M1077 1366h246v-788q0 -283 -150.5 -438.5t-423 -155.5t-422 155.5t-149.5 438.5v788h246v-809q0 -180 78 -264t248 -84t248.5 84t78.5 264v809z" />
<glyph unicode="V" horiz-adv-x="1347" d="M674 305l387 1061h262l-522 -1366h-252l-524 1366h262z" />
<glyph unicode="W" horiz-adv-x="2045" d="M1765 1366h256l-438 -1366h-254l-305 952l-307 -952h-254l-438 1366h258l307 -1010l325 1010h215l326 -1010z" />
<glyph unicode="X" horiz-adv-x="1329" d="M1274 1366l-469 -666l491 -700h-299l-344 487l-344 -487h-284l485 690l-473 676h299l326 -461l323 461h289z" />
<glyph unicode="Y" horiz-adv-x="1368" d="M1341 1366l-534 -780v-586h-246v586l-536 780h297l362 -555l360 555h297z" />
<glyph unicode="Z" horiz-adv-x="1271" d="M1120 1147l-688 -901h688v-246h-989v225l684 895h-676v246h981v-219z" />
<glyph unicode="[" horiz-adv-x="808" d="M432 1235v-1282h207v-191h-395v1663h395v-190h-207z" />
<glyph unicode="\" horiz-adv-x="829" d="M129 1548l752 -1749h-203l-754 1749h205z" />
<glyph unicode="]" horiz-adv-x="808" d="M379 -47v1282h-207v190h395v-1663h-395v191h207z" />
<glyph unicode="^" horiz-adv-x="1146" d="M600 1413l225 -444h-170l-110 260l-111 -260h-170l223 444h113z" />
<glyph unicode="_" horiz-adv-x="1118" d="M0 -49h1118v-141h-1118v141z" />
<glyph unicode="`" horiz-adv-x="522" d="M293 1395l127 -240h-137l-191 240h201z" />
<glyph unicode="a" horiz-adv-x="1110" d="M532 1038q219 0 335 -111.5t116 -322.5v-276q0 -141 -105.5 -242.5t-324.5 -101.5q-225 0 -331.5 102t-106.5 248q0 31 6 63.5t31.5 81.5t69.5 86t130 63.5t203 26.5q84 0 180 -14q0 193 -217 193q-172 0 -299 -52v199q141 57 313 57zM737 356v129q-86 12 -147 13 q-231 0 -232 -133q0 -164 193 -164q186 -1 186 155z" />
<glyph unicode="b" horiz-adv-x="1181" d="M584 1038q229 0 352 -133t123 -383q0 -137 -36 -241.5t-85 -158.5t-117.5 -88t-119 -42t-101.5 -8q-219 0 -324.5 101t-105.5 243v1085h246v-391q88 16 168 16zM600 195q117 0 164 79.5t47 260.5q0 172 -60.5 240.5t-175.5 68.5q-90 0 -159 -17v-522q0 -110 184 -110z " />
<glyph unicode="c" horiz-adv-x="966" d="M365 510q0 -184 68.5 -249.5t209.5 -65.5q127 0 254 51v-205q-145 -57 -295 -57q-233 0 -358 136t-125 390q0 256 125 392t358 136q150 0 295 -57v-205q-121 49 -254 49q-141 0 -209.5 -64.5t-68.5 -250.5z" />
<glyph unicode="d" horiz-adv-x="1167" d="M129 522q0 250 122 383t351 133q82 0 170 -16v391h246v-1085q0 -141 -106.5 -242.5t-325.5 -101.5q-51 0 -101.5 8t-118 42t-117.5 88t-85 158.5t-35 241.5zM375 535q0 -180 47 -260t164 -80q186 0 186 110v522q-72 16 -162 17q-115 0 -175 -68.5t-60 -240.5z" />
<glyph unicode="e" horiz-adv-x="1144" d="M641 195q180 0 348 79v-198q-170 -92 -385 -92q-68 0 -128 11t-125.5 46t-113 89t-78 149.5t-30.5 220.5q0 246 109.5 393t347.5 147q225 0 340.5 -143t115.5 -352q0 -86 -4 -127h-657q10 -133 79.5 -178t180.5 -45zM586 840q-92 0 -143.5 -59.5t-61.5 -192.5h412 q-10 106 -62.5 179t-144.5 73z" />
<glyph unicode="f" horiz-adv-x="731" d="M682 1247q-96 0 -138 -46t-42 -179h235v-211h-235v-811h-246v811h-174v211h174q2 424 381 424q49 0 100 -10v-193q-37 4 -55 4z" />
<glyph unicode="g" horiz-adv-x="1122" d="M567 1038q215 0 316.5 -98t101.5 -238v-727q0 -49 -9 -93t-38 -98t-77 -92t-135 -64.5t-202 -26.5q-162 0 -295 41v219q123 -41 267 -41q86 0 140 13t73.5 41t24.5 47.5t5 53.5v56q-82 -16 -155 -17q-223 0 -342 129t-119 371q0 135 35 235.5t83 153.5t113.5 86t114.5 41 t98 8zM739 229v476q0 115 -172 114q-98 0 -148 -71.5t-50 -237.5q0 -172 55 -233.5t168 -61.5q75 0 147 14z" />
<glyph unicode="h" horiz-adv-x="1228" d="M643 1038q213 0 333 -111.5t120 -312.5v-614h-244v635q0 41 -7 68.5t-30.5 57.5t-77 45t-135.5 15q-96 0 -164 -30v-791h-245v1411h245v-407q88 34 205 34z" />
<glyph unicode="i" horiz-adv-x="638" d="M442 0h-245v1022h245v-1022zM444 1161h-251v225h251v-225z" />
<glyph unicode="j" horiz-adv-x="593" d="M444 1161h-251v225h251v-225zM197 1022h245v-1036q0 -66 -7 -113t-33.5 -99.5t-72.5 -85t-128 -56t-195 -27.5v190q70 4 112 17.5t57 42t18.5 49t3.5 65.5v1053z" />
<glyph unicode="k" horiz-adv-x="1226" d="M1151 0h-311l-338 403l-68 -69v-334h-246v1405h246v-758l344 375h326l-445 -455z" />
<glyph unicode="l" horiz-adv-x="659" d="M453 0h-246v1411h246v-1411z" />
<glyph unicode="m" horiz-adv-x="1908" d="M1288 1038q207 0 322.5 -112.5t115.5 -311.5v-614h-245v631q0 98 -49.5 148t-184.5 50q-106 0 -209 -24q43 -49 43 -191v-614h-243v637q0 94 -48.5 141t-181.5 47q-88 0 -170 -16v-809h-245v924q229 115 450 114q166 0 277 -75q190 75 368 75z" />
<glyph unicode="n" horiz-adv-x="1273" d="M637 1038q213 0 333 -111.5t120 -312.5v-614h-244v635q0 41 -7.5 68.5t-30 57.5t-73.5 45t-131 15q-90 0 -190 -18v-803h-246v926q225 112 469 112z" />
<glyph unicode="o" horiz-adv-x="1159" d="M583.5 1036q233.5 0 358.5 -136t125 -390t-125 -390t-358.5 -136t-358.5 136t-125 390t125 390t358.5 136zM584 186q121 0 179 66.5t58 257t-58 257.5t-179 67t-179.5 -67t-58.5 -257.5t58.5 -257t179.5 -66.5z" />
<glyph unicode="p" horiz-adv-x="1175" d="M598 1036q51 0 101.5 -8t119 -42t117.5 -88t85 -158.5t36 -241.5q0 -250 -123 -384t-352 -134q-86 0 -168 18v-377h-246v1071q0 141 105.5 242.5t324.5 101.5zM565 170q119 0 181.5 69.5t62.5 245.5q0 180 -47 260t-164 80q-184 0 -184 -110v-533q85 -12 151 -12z" />
<glyph unicode="q" horiz-adv-x="1171" d="M115 498q0 137 34.5 241.5t85 158.5t118 88t117.5 42t101 8q219 0 326 -101t107 -243v-1071h-246v377q-82 -18 -170 -18q-229 0 -351 134t-122 384zM360 485q0 -176 62.5 -245.5t181.5 -69.5q68 0 154 12v533q0 111 -187 110q-117 0 -164 -80t-47 -260z" />
<glyph unicode="r" horiz-adv-x="741" d="M166 930q25 12 69 28.5t177 47t264 32.5v-213q-154 -2 -264 -34v-791h-246v930z" />
<glyph unicode="s" horiz-adv-x="923" d="M346 741q0 -43 50 -67.5t122 -43t143.5 -50t122 -106.5t50.5 -191q0 -129 -104.5 -214t-276.5 -85q-176 0 -324 84v219q135 -90 289 -90q106 0 138 24.5t32 73.5q0 45 -50.5 72.5t-122 48t-143 48.5t-122 92.5t-50.5 162.5q0 154 108.5 236.5t270.5 82.5q152 0 279 -73 v-187q-104 49 -236 49q-176 0 -176 -86z" />
<glyph unicode="t" horiz-adv-x="794" d="M709 811h-242v-504q0 -66 27.5 -89t97.5 -23q66 0 117 22v-203q-74 -31 -162 -30q-152 0 -239 90t-87 248v489h-172v211h172v303h246v-303h242v-211z" />
<glyph unicode="u" horiz-adv-x="1259" d="M844 1022h248v-559q0 -225 -123 -352t-340 -127t-339 127t-122 352v559h248v-592q0 -123 50 -177t163 -54q115 0 165 54t50 177v592z" />
<glyph unicode="v" horiz-adv-x="1169" d="M840 1022h264l-391 -1022h-256l-391 1022h262l256 -772z" />
<glyph unicode="w" horiz-adv-x="1710" d="M1372 1022h260l-362 -1022h-246l-168 588l-170 -588h-246l-362 1022h260l217 -737l195 737h211l194 -737z" />
<glyph unicode="x" horiz-adv-x="1142" d="M1085 0h-301l-229 326l-231 -326h-267l363 516l-354 506h301l204 -291l205 291h273l-342 -483z" />
<glyph unicode="y" horiz-adv-x="1107" d="M778 1022h260l-389 -1047q-82 -223 -178 -300.5t-199 -77.5q-76 0 -155 28v205q59 -25 116 -25q106 0 197 248l-367 969h261l229 -713z" />
<glyph unicode="z" horiz-adv-x="999" d="M879 795l-478 -572h478v-223h-787v229l471 570h-461v223h777v-227z" />
<glyph unicode="{" horiz-adv-x="784" d="M506 823q0 -86 -52.5 -142t-117.5 -79q66 -20 118 -76.5t52 -142.5v-289q0 -31 3 -48t13 -40.5t37 -35t70 -11.5h24v-184h-41q-162 0 -242.5 90t-80.5 235v293q0 41 -25.5 70t-50.5 37l-27 6v194q12 2 28.5 7.5t45.5 34t29 71.5v293q0 145 81 235.5t242 90.5h41v-185h-24 q-43 0 -70 -11t-37 -34.5t-13 -41t-3 -48.5v-289z" />
<glyph unicode="|" horiz-adv-x="954" d="M598 -203h-219v1569h219v-1569z" />
<glyph unicode="}" horiz-adv-x="784" d="M301 383q0 86 52.5 142.5t117.5 76.5q-66 23 -118 79t-52 142v289q0 31 -3 48.5t-13.5 41t-37 34.5t-69.5 11h-22v185h39q164 0 244.5 -89.5t80.5 -236.5v-293q0 -43 25.5 -70.5t52.5 -33.5l25 -9v-194q-4 0 -11.5 -2t-25 -10.5t-30.5 -19.5t-24.5 -32.5t-11.5 -48.5 v-293q0 -147 -81 -236t-244 -89h-39v184h22q43 0 69.5 11.5t37 35t13.5 40.5t3 48v289z" />
<glyph unicode="~" horiz-adv-x="1071" d="M870 496q-57 -68 -127.5 -74t-138.5 23l-135 61q-68 31 -139.5 24.5t-128.5 -73.5v168q57 68 128.5 74t139.5 -25l135 -61q68 -30 138.5 -23.5t127.5 74.5v-168z" />
<glyph unicode="&#xa1;" horiz-adv-x="825" d="M543 795h-240v227h240v-227zM563 -344h-280l45 973h190z" />
<glyph unicode="&#xa2;" horiz-adv-x="976" d="M895 948q-98 41 -209 47v-626q104 6 209 49v-205q-111 -43 -209 -53v-160h-119v156q-219 10 -334.5 145t-115.5 381t115.5 382t334.5 146v156h119v-160q98 -10 209 -53v-205zM362 682q0 -158 51.5 -228.5t153.5 -82.5v622q-102 -12 -153.5 -81.5t-51.5 -229.5z" />
<glyph unicode="&#xa3;" horiz-adv-x="1153" d="M725 1190q-117 0 -178.5 -56.5t-61.5 -152.5v-221h377v-195h-377v-325q6 -2 75 -20.5t85 -21.5l75 -15q58 -11 84.5 -9t74 4t85 15.5t74.5 35.5v-215q-88 -45 -186 -44t-186 25.5t-177.5 46t-190.5 7.5t-198 -80v209q51 39 174 68v319h-174v195h174v235 q0 160 105.5 273.5t327.5 113.5q168 0 331 -94v-211q-149 113 -313 113z" />
<glyph unicode="&#xa5;" horiz-adv-x="1396" d="M1354 1366l-410 -598h162v-184h-287v-160h287v-184h-287v-240h-246v240h-288v184h288v160h-288v184h161l-409 598h297l362 -555l361 555h297z" />
<glyph unicode="&#xa7;" horiz-adv-x="1247" d="M1112 645q0 -86 -65.5 -137t-161.5 -62q84 -51 84 -167q0 -133 -117 -214t-315 -81q-211 0 -394 120v230q164 -133 369 -133q82 0 141.5 22.5t59.5 69.5q0 35 -59.5 60.5t-143.5 50t-169 56.5t-144.5 95t-59.5 154q0 98 79 152t175 59q-47 20 -78.5 69t-31.5 103 q0 106 67.5 174.5t158.5 93t204 24.5q184 0 344 -92v-211q-164 78 -314 78q-74 0 -135 -21.5t-61 -72.5q0 -27 42 -50.5t105.5 -41t136 -46t136 -61t105.5 -90t42 -131.5zM723 551q61 6 93 33.5t32 54.5q0 37 -55.5 66.5t-147.5 57.5t-106 34q-45 -4 -91.5 -24.5 t-46.5 -53.5q0 -43 68 -75t254 -93z" />
<glyph unicode="&#xa8;" horiz-adv-x="856" d="M369 1350v-195h-207v195h207zM696 1350v-195h-207v195h207z" />
<glyph unicode="&#xa9;" horiz-adv-x="1593" d="M797 1382q291 0 495.5 -204.5t204.5 -495.5q0 -289 -205 -493.5t-495 -204.5q-289 0 -494 204.5t-205 493.5q0 291 205 495.5t494 204.5zM797 88q248 0 422 174t174 420q0 248 -174.5 422t-421.5 174q-246 0 -420 -174t-174 -422q0 -246 174 -420t420 -174zM823 403 q119 0 230 54v-135q-119 -47 -242 -48q-72 0 -131 17.5t-116.5 58.5t-90.5 126t-33 206t33 206t90.5 127t116.5 59.5t131 17.5q123 0 242 -48v-135q-117 53 -229.5 53.5t-176 -56t-63.5 -224.5t63 -223.5t176 -55.5z" />
<glyph unicode="&#xaa;" horiz-adv-x="808" d="M385 1382q121 0 186.5 -62.5t65.5 -178.5v-154q0 -80 -58.5 -136t-181.5 -56q-125 0 -184 57t-59 137q0 25 7 48.5t28.5 57t74.5 54t133 20.5q39 0 101 -8q0 106 -121 107q-98 0 -166 -29v111q78 32 174 32zM500 1004v71q-74 6 -82 6q-129 0 -129 -73q0 -92 106 -93 q105 1 105 89z" />
<glyph unicode="&#xab;" horiz-adv-x="1247" d="M698 911l-372 -389l372 -391h-286l-346 391l346 389h286zM1155 911l-373 -389l373 -391h-287l-346 391l346 389h287z" />
<glyph unicode="&#xac;" horiz-adv-x="1273" d="M199 684h876v-389h-176v197h-700v192z" />
<glyph unicode="&#xad;" horiz-adv-x="950" d="M162 707h624v-193h-624v193z" />
<glyph unicode="&#xae;" horiz-adv-x="1593" d="M799 1382q291 0 495.5 -204.5t204.5 -495.5q0 -289 -204.5 -493.5t-495.5 -204.5q-289 0 -494 204.5t-205 493.5q0 291 205 495.5t494 204.5zM799 88q248 0 422 174t174 420q0 248 -174 422t-422 174q-246 0 -420 -174t-174 -422q0 -246 174 -420t420 -174zM954 590 l209 -305h-174l-188 280h-129v-280h-144v796h306q139 0 216.5 -66.5t77.5 -189.5q0 -184 -174 -235zM672 696h157q72 0 114 26t42 99.5t-42 100t-114 26.5h-157v-252z" />
<glyph unicode="&#xaf;" horiz-adv-x="825" d="M655 1325v-145h-479v145h479z" />
<glyph unicode="&#xb0;" horiz-adv-x="792" d="M391.5 1370q108.5 0 165.5 -58.5t57 -168.5q0 -109 -57 -167t-165.5 -58t-166 58t-57.5 167q0 111 57.5 169t166 58zM391.5 1018q59.5 0 86 29.5t26.5 97.5q0 66 -26.5 95.5t-86 29.5t-87.5 -30t-28 -95q0 -68 28 -97.5t87.5 -29.5z" />
<glyph unicode="&#xb1;" horiz-adv-x="1198" d="M696 1061v-275h273v-182h-273v-270h-182v270h-272v182h272v275h182zM242 61v166h727v-166h-727z" />
<glyph unicode="&#xb2;" horiz-adv-x="696" d="M584 1475q0 -180 -254 -396h266v-131h-487v109q125 92 234.5 209.5t109.5 208.5q0 88 -129 88q-119 0 -209 -66v133q106 63 213 64q131 0 193.5 -64.5t62.5 -154.5z" />
<glyph unicode="&#xb3;" horiz-adv-x="686" d="M475 1346q125 -43 125 -177q0 -121 -85 -175t-196 -54q-109 0 -208 53v135q96 -57 200 -57q158 0 158 100q0 113 -162 113h-94v109h98q61 0 91 25.5t30 62.5q0 80 -129 80q-100 0 -176 -48v136q98 45 184 45q109 0 181.5 -49.5t72.5 -159.5q0 -90 -90 -139z" />
<glyph unicode="&#xb4;" horiz-adv-x="528" d="M121 1155l127 240h201l-191 -240h-137z" />
<glyph unicode="&#xb5;" horiz-adv-x="1323" d="M879 1022h245v-926q-225 -113 -469 -112q-127 0 -209 51v-465h-243v1452h243v-635q0 -41 7.5 -68.5t30 -57.5t73.5 -45t131 -15q90 0 191 18v803z" />
<glyph unicode="&#xb6;" horiz-adv-x="911" d="M549 1366h299v-1366h-232v524h-67q-229 0 -350 108.5t-121 313.5q0 203 121 311.5t350 108.5z" />
<glyph unicode="&#xb7;" horiz-adv-x="663" d="M451 672v-228h-240v228h240z" />
<glyph unicode="&#xb8;" horiz-adv-x="563" d="M297 -10h160l-127 -246h-211z" />
<glyph unicode="&#xb9;" horiz-adv-x="512" d="M109 1593l143 90h121v-735h-133v586l-131 -82v141z" />
<glyph unicode="&#xba;" horiz-adv-x="854" d="M422 1384q131 0 200.5 -75.5t69.5 -216.5q0 -143 -69.5 -219t-200.5 -76t-200.5 75.5t-69.5 219.5q0 141 69.5 216.5t200.5 75.5zM422 909q66 0 99.5 38t33.5 145q0 104 -34 142t-99 38q-68 0 -100.5 -38t-32.5 -142q0 -106 32.5 -144.5t100.5 -38.5z" />
<glyph unicode="&#xbb;" horiz-adv-x="1277" d="M563 131l373 389l-373 391h287l346 -391l-346 -389h-287zM106 131l373 389l-373 391h287l346 -391l-346 -389h-287z" />
<glyph unicode="&#xbc;" horiz-adv-x="1476" d="M109 1290l143 90h121v-735h-133v586l-131 -82v141zM1063 1403h164l-895 -1448h-164zM1286 735v-409h96v-117h-96v-209h-131v209h-330v108l336 418h125zM1155 326v227l-174 -227h174z" />
<glyph unicode="&#xbd;" horiz-adv-x="1527" d="M109 1290l143 90h121v-735h-133v586l-131 -82v141zM1063 1403h164l-895 -1448h-164zM1411 526q0 -180 -254 -395h266v-131h-487v109q125 92 234.5 209.5t109.5 207.5q0 88 -129 88q-119 0 -209 -65v133q106 63 213 63q131 0 193.5 -64.5t62.5 -154.5z" />
<glyph unicode="&#xbe;" horiz-adv-x="1691" d="M1493 735v-409h96v-117h-96v-209h-131v209h-330v108l336 418h125zM1362 326v227l-174 -227h174zM500 1040q125 -43 125 -176q0 -121 -85 -175t-196 -54q-109 0 -209 53v135q96 -57 201 -57q158 0 158 100q0 113 -162 113h-94v108h98q61 0 91 26t30 63q0 80 -129 79 q-100 0 -176 -47v135q98 45 184 46q109 0 181.5 -49.5t72.5 -159.5q0 -91 -90 -140zM1264 1403h163l-895 -1448h-163z" />
<glyph unicode="&#xbf;" horiz-adv-x="1042" d="M156 37q0 70 22.5 126t55.5 92l73 74l73 72q34 35 56.5 88.5t22.5 118.5v21h217v-27q0 -104 -31 -184t-76 -127t-89 -86t-74.5 -81t-30.5 -89q0 -182 221 -182q180 0 305 110v-227q-150 -96 -321 -96q-115 0 -200 33.5t-132 92t-69.5 126t-22.5 145.5zM686 795h-240v227 h240v-227z" />
<glyph unicode="&#xc0;" d="M1135 0l-125 328h-578l-125 -328h-264l543 1366h270l543 -1366h-264zM516 551h408l-203 536zM659 1722l127 -239h-137l-190 239h200z" />
<glyph unicode="&#xc1;" d="M1135 0l-125 328h-578l-125 -328h-264l543 1366h270l543 -1366h-264zM516 551h408l-203 536zM655 1483l127 239h201l-190 -239h-138z" />
<glyph unicode="&#xc2;" d="M1135 0l-125 328h-578l-125 -328h-264l543 1366h270l543 -1366h-264zM516 551h408l-203 536zM721 1597l-74 -114h-162l187 250h98l188 -250h-163z" />
<glyph unicode="&#xc3;" d="M1135 0l-125 328h-578l-125 -328h-264l543 1366h270l543 -1366h-264zM516 551h408l-203 536zM1032 1520q-57 -68 -122.5 -74t-127.5 23l-122 61q-60 31 -126.5 24.5t-123.5 -73.5v155q57 68 123.5 74t126.5 -24l122 -61q61 -30 127 -23.5t123 73.5v-155z" />
<glyph unicode="&#xc4;" d="M1135 0l-125 328h-578l-125 -328h-264l543 1366h270l543 -1366h-264zM516 551h408l-203 536zM662 1677v-194h-207v194h207zM989 1677v-194h-207v194h207z" />
<glyph unicode="&#xc5;" d="M1135 0l-125 328h-578l-125 -328h-264l543 1366h270l543 -1366h-264zM516 551h408l-203 536zM721 1776q86 0 132 -46.5t46 -130t-46 -130t-132 -46.5q-84 0 -131 46.5t-47 130t47 130t131 46.5zM721 1511q39 0 54.5 19.5t15.5 69t-15.5 69t-54.5 19.5t-54.5 -19.5 t-15.5 -69t15.5 -69t54.5 -19.5z" />
<glyph unicode="&#xc6;" horiz-adv-x="2039" d="M1917 1145h-664v-346h576v-232h-576v-346h664v-221h-909v307h-478l-188 -307h-291l864 1366h1002v-221zM1008 512v578l-353 -578h353z" />
<glyph unicode="&#xc7;" horiz-adv-x="1286" d="M784 1163q-92 0 -157.5 -16.5t-128 -63.5t-95 -147t-32.5 -252t32.5 -252t95 -147t128 -63.5t157.5 -16.5q199 0 390 90v-229q-170 -72 -349 -80l-123 -242h-213l177 244q-109 12 -198 50t-171 113.5t-127 212t-45 320.5q0 168 39 295t100.5 202.5t148.5 123t170 63.5 t179 16q211 0 412 -81v-230q-191 90 -390 90z" />
<glyph unicode="&#xc8;" horiz-adv-x="1204" d="M424 1145v-346h575v-232h-575v-346h663v-221h-909v1366h909v-221h-663zM598 1722l127 -239h-137l-191 239h201z" />
<glyph unicode="&#xc9;" horiz-adv-x="1204" d="M424 1145v-346h575v-232h-575v-346h663v-221h-909v1366h909v-221h-663zM555 1483l127 239h201l-191 -239h-137z" />
<glyph unicode="&#xca;" horiz-adv-x="1204" d="M424 1145v-346h575v-232h-575v-346h663v-221h-909v1366h909v-221h-663zM649 1597l-74 -114h-161l186 250h98l189 -250h-164z" />
<glyph unicode="&#xcb;" horiz-adv-x="1204" d="M424 1145v-346h575v-232h-575v-346h663v-221h-909v1366h909v-221h-663zM596 1677v-194h-207v194h207zM924 1677v-194h-207v194h207z" />
<glyph unicode="&#xcc;" horiz-adv-x="600" d="M424 0v1366h-246v-1366h246zM236 1722l126 -239h-137l-190 239h201z" />
<glyph unicode="&#xcd;" horiz-adv-x="600" d="M424 0v1366h-246v-1366h246zM240 1483l127 239h200l-190 -239h-137z" />
<glyph unicode="&#xce;" horiz-adv-x="600" d="M424 0v1366h-246v-1366h246zM299 1597l-74 -114h-162l187 250h98l189 -250h-164z" />
<glyph unicode="&#xcf;" horiz-adv-x="600" d="M424 0v1366h-246v-1366h246zM240 1677v-194h-207v194h207zM567 1677v-194h-207v194h207z" />
<glyph unicode="&#xd0;" horiz-adv-x="1509" d="M739 1366q317 0 481 -174t164 -510q0 -334 -163.5 -508t-481.5 -174h-471v598h-162v168h162v600h471zM739 223q213 0 306.5 107.5t93.5 351.5q0 246 -93.5 353.5t-306.5 107.5h-225v-377h242v-168h-242v-375h225z" />
<glyph unicode="&#xd1;" horiz-adv-x="1587" d="M1159 1366h246v-1366h-275l-706 1020v-1020h-246v1366h279l702 -1012v1012zM1104 1520q-57 -68 -123 -74t-127 23l-122 61q-60 31 -126.5 24.5t-124.5 -73.5v155q57 68 124 74t127 -24l122 -61q61 -30 127 -23.5t123 73.5v-155z" />
<glyph unicode="&#xd2;" horiz-adv-x="1538" d="M762 1382q96 0 179 -16t170 -63.5t149.5 -123t101.5 -202.5t39 -295q0 -166 -39 -294t-101.5 -202.5t-149.5 -122t-170 -63.5t-179 -16t-179 16t-170 63.5t-148.5 122t-100.5 202.5t-39 294q0 168 39 295t100.5 202.5t148.5 123t170 63.5t179 16zM762 199q70 0 121 9 t105 38.5t88 82t56.5 142.5t22.5 213q0 152 -30.5 253t-91 148.5t-122 63.5t-149.5 16q-68 0 -119 -9t-105.5 -39t-88 -81t-56 -140t-22.5 -212q0 -154 30.5 -255t90 -148.5t122 -64.5t148.5 -17zM719 1722l127 -239h-137l-191 239h201z" />
<glyph unicode="&#xd3;" horiz-adv-x="1538" d="M762 1382q96 0 179 -16t170 -63.5t149.5 -123t101.5 -202.5t39 -295q0 -166 -39 -294t-101.5 -202.5t-149.5 -122t-170 -63.5t-179 -16t-179 16t-170 63.5t-148.5 122t-100.5 202.5t-39 294q0 168 39 295t100.5 202.5t148.5 123t170 63.5t179 16zM762 199q70 0 121 9 t105 38.5t88 82t56.5 142.5t22.5 213q0 152 -30.5 253t-91 148.5t-122 63.5t-149.5 16q-68 0 -119 -9t-105.5 -39t-88 -81t-56 -140t-22.5 -212q0 -154 30.5 -255t90 -148.5t122 -64.5t148.5 -17zM680 1483l127 239h201l-191 -239h-137z" />
<glyph unicode="&#xd4;" horiz-adv-x="1538" d="M762 1382q96 0 179 -16t170 -63.5t149.5 -123t101.5 -202.5t39 -295q0 -166 -39 -294t-101.5 -202.5t-149.5 -122t-170 -63.5t-179 -16t-179 16t-170 63.5t-148.5 122t-100.5 202.5t-39 294q0 168 39 295t100.5 202.5t148.5 123t170 63.5t179 16zM762 199q70 0 121 9 t105 38.5t88 82t56.5 142.5t22.5 213q0 152 -30.5 253t-91 148.5t-122 63.5t-149.5 16q-68 0 -119 -9t-105.5 -39t-88 -81t-56 -140t-22.5 -212q0 -154 30.5 -255t90 -148.5t122 -64.5t148.5 -17zM762 1597l-74 -114h-162l187 250h98l188 -250h-163z" />
<glyph unicode="&#xd5;" horiz-adv-x="1538" d="M762 1382q96 0 179 -16t170 -63.5t149.5 -123t101.5 -202.5t39 -295q0 -166 -39 -294t-101.5 -202.5t-149.5 -122t-170 -63.5t-179 -16t-179 16t-170 63.5t-148.5 122t-100.5 202.5t-39 294q0 168 39 295t100.5 202.5t148.5 123t170 63.5t179 16zM762 199q70 0 121 9 t105 38.5t88 82t56.5 142.5t22.5 213q0 152 -30.5 253t-91 148.5t-122 63.5t-149.5 16q-68 0 -119 -9t-105.5 -39t-88 -81t-56 -140t-22.5 -212q0 -154 30.5 -255t90 -148.5t122 -64.5t148.5 -17zM1073 1520q-57 -68 -122.5 -74t-127.5 23l-122 61q-60 31 -126.5 24.5 t-123.5 -73.5v155q57 68 123.5 74t126.5 -24l122 -61q61 -30 127 -23.5t123 73.5v-155z" />
<glyph unicode="&#xd6;" horiz-adv-x="1538" d="M762 1382q96 0 179 -16t170 -63.5t149.5 -123t101.5 -202.5t39 -295q0 -166 -39 -294t-101.5 -202.5t-149.5 -122t-170 -63.5t-179 -16t-179 16t-170 63.5t-148.5 122t-100.5 202.5t-39 294q0 168 39 295t100.5 202.5t148.5 123t170 63.5t179 16zM762 199q70 0 121 9 t105 38.5t88 82t56.5 142.5t22.5 213q0 152 -30.5 253t-91 148.5t-122 63.5t-149.5 16q-68 0 -119 -9t-105.5 -39t-88 -81t-56 -140t-22.5 -212q0 -154 30.5 -255t90 -148.5t122 -64.5t148.5 -17zM702 1677v-194h-206v194h206zM1030 1677v-194h-207v194h207z" />
<glyph unicode="&#xd7;" horiz-adv-x="1062" d="M905 889l-280 -365l280 -364h-182l-193 243l-190 -243h-184l282 364l-282 365h184l190 -246l193 246h182z" />
<glyph unicode="&#xd8;" horiz-adv-x="1529" d="M1458 1366l-180 -213q123 -178 123 -471q0 -166 -39 -294t-101.5 -202.5t-149.5 -122t-170 -63.5t-179 -16q-233 0 -387 100l-70 -84h-237l178 211q-121 174 -121 471q0 168 39 295t100.5 202.5t148.5 123t170 63.5t179 16q233 0 385 -102l74 86h237zM371 684 q0 -168 39 -278l594 702q-84 57 -242 57q-68 0 -119 -9t-105.5 -39t-88 -81t-56 -140t-22.5 -212zM1155 684q0 162 -41 274l-594 -702q84 -57 242 -57q70 0 121 9t105 38.5t88 82t56.5 142.5t22.5 213z" />
<glyph unicode="&#xd9;" horiz-adv-x="1511" d="M1077 1366h246v-788q0 -283 -150.5 -438.5t-423 -155.5t-422 155.5t-149.5 438.5v788h246v-809q0 -180 78 -264t248 -84t248.5 84t78.5 264v809zM707 1722l127 -239h-138l-190 239h201z" />
<glyph unicode="&#xda;" horiz-adv-x="1511" d="M1077 1366h246v-788q0 -283 -150.5 -438.5t-423 -155.5t-422 155.5t-149.5 438.5v788h246v-809q0 -180 78 -264t248 -84t248.5 84t78.5 264v809zM668 1483l127 239h200l-190 -239h-137z" />
<glyph unicode="&#xdb;" horiz-adv-x="1511" d="M1077 1366h246v-788q0 -283 -150.5 -438.5t-423 -155.5t-422 155.5t-149.5 438.5v788h246v-809q0 -180 78 -264t248 -84t248.5 84t78.5 264v809zM750 1597l-74 -114h-162l186 250h99l188 -250h-164z" />
<glyph unicode="&#xdc;" horiz-adv-x="1511" d="M1077 1366h246v-788q0 -283 -150.5 -438.5t-423 -155.5t-422 155.5t-149.5 438.5v788h246v-809q0 -180 78 -264t248 -84t248.5 84t78.5 264v809zM690 1677v-194h-207v194h207zM1018 1677v-194h-207v194h207z" />
<glyph unicode="&#xdd;" horiz-adv-x="1368" d="M731 1483h-137l127 239h201zM1044 1366h297l-534 -780v-586h-246v586l-536 780h297l362 -555z" />
<glyph unicode="&#xde;" horiz-adv-x="1253" d="M631 1194q242 0 374 -120t132 -339t-132.5 -339t-373.5 -120h-209v-276h-246v1366h246v-172h209zM612 500q162 0 221.5 59t59.5 176q0 115 -59.5 173.5t-221.5 58.5h-190v-467h190z" />
<glyph unicode="&#xdf;" horiz-adv-x="1255" d="M1090 1004q0 -109 -63.5 -187t-133.5 -104q37 -10 70.5 -27.5t82 -51.5t77 -93.5t28.5 -134.5q0 -201 -160 -309.5t-413 -96.5v199q346 -4 346 215q0 193 -346 204v181q66 0 124 11t113 58t55 127q0 213 -219 213q-51 0 -89 -13t-75.5 -48t-58 -109.5t-20.5 -187.5v-850 h-228v856q0 156 40 265.5t108.5 162.5t140.5 75.5t156 22.5q223 0 344 -113t121 -265z" />
<glyph unicode="&#xe0;" horiz-adv-x="1110" d="M532 1038q219 0 335 -111.5t116 -322.5v-276q0 -141 -105.5 -242.5t-324.5 -101.5q-225 0 -331.5 102t-106.5 248q0 31 6 63.5t31.5 81.5t69.5 86t130 63.5t203 26.5q84 0 180 -14q0 193 -217 193q-172 0 -299 -52v199q141 57 313 57zM737 356v129q-86 12 -147 13 q-231 0 -232 -133q0 -164 193 -164q186 -1 186 155zM514 1395l127 -240h-137l-191 240h201z" />
<glyph unicode="&#xe1;" horiz-adv-x="1110" d="M532 1038q219 0 335 -111.5t116 -322.5v-276q0 -141 -105.5 -242.5t-324.5 -101.5q-225 0 -331.5 102t-106.5 248q0 31 6 63.5t31.5 81.5t69.5 86t130 63.5t203 26.5q84 0 180 -14q0 193 -217 193q-172 0 -299 -52v199q141 57 313 57zM737 356v129q-86 12 -147 13 q-231 0 -232 -133q0 -164 193 -164q186 -1 186 155zM459 1155l127 240h200l-190 -240h-137z" />
<glyph unicode="&#xe2;" horiz-adv-x="1110" d="M532 1038q219 0 335 -111.5t116 -322.5v-276q0 -141 -105.5 -242.5t-324.5 -101.5q-225 0 -331.5 102t-106.5 248q0 31 6 63.5t31.5 81.5t69.5 86t130 63.5t203 26.5q84 0 180 -14q0 193 -217 193q-172 0 -299 -52v199q141 57 313 57zM737 356v129q-86 12 -147 13 q-231 0 -232 -133q0 -164 193 -164q186 -1 186 155zM573 1270l-73 -115h-162l186 250h99l188 -250h-164z" />
<glyph unicode="&#xe3;" horiz-adv-x="1110" d="M532 1038q219 0 335 -111.5t116 -322.5v-276q0 -141 -105.5 -242.5t-324.5 -101.5q-225 0 -331.5 102t-106.5 248q0 31 6 63.5t31.5 81.5t69.5 86t130 63.5t203 26.5q84 0 180 -14q0 193 -217 193q-172 0 -299 -52v199q141 57 313 57zM737 356v129q-86 12 -147 13 q-231 0 -232 -133q0 -164 193 -164q186 -1 186 155zM881 1192q-57 -68 -123 -74t-127 24l-122 60q-60 31 -127 25t-124 -74v156q57 68 124 74t127 -25l122 -61q61 -30 126.5 -23.5t123.5 74.5v-156z" />
<glyph unicode="&#xe4;" horiz-adv-x="1110" d="M532 1038q219 0 335 -111.5t116 -322.5v-276q0 -141 -105.5 -242.5t-324.5 -101.5q-225 0 -331.5 102t-106.5 248q0 31 6 63.5t31.5 81.5t69.5 86t130 63.5t203 26.5q84 0 180 -14q0 193 -217 193q-172 0 -299 -52v199q141 57 313 57zM737 356v129q-86 12 -147 13 q-231 0 -232 -133q0 -164 193 -164q186 -1 186 155zM494 1350v-195h-207v195h207zM821 1350v-195h-207v195h207z" />
<glyph unicode="&#xe5;" horiz-adv-x="1110" d="M532 1038q219 0 335 -111.5t116 -322.5v-276q0 -141 -105.5 -242.5t-324.5 -101.5q-225 0 -331.5 102t-106.5 248q0 31 6 63.5t31.5 81.5t69.5 86t130 63.5t203 26.5q84 0 180 -14q0 193 -217 193q-172 0 -299 -52v199q141 57 313 57zM737 356v129q-86 12 -147 13 q-231 0 -232 -133q0 -164 193 -164q186 -1 186 155zM567 1448q86 0 132 -46t46 -130t-46 -130t-132 -46q-84 0 -131 46t-47 130t47 130t131 46zM567 1184q39 0 54.5 19.5t15.5 68.5t-15.5 68.5t-54.5 19.5t-54 -19.5t-15 -68.5t15 -68.5t54 -19.5z" />
<glyph unicode="&#xe6;" horiz-adv-x="1792" d="M1640 545q0 -86 -4 -127h-657q10 -133 79.5 -178t180.5 -45q180 0 348 79v-198q-170 -92 -385 -92q-104 0 -193 43t-135 102q-106 -145 -327 -145q-225 0 -331.5 102t-106.5 248q0 31 6 63.5t31.5 81.5t69.5 86t130 63.5t203 26.5q84 0 180 -14q0 193 -217 193 q-172 0 -299 -52v199q141 57 313 57q236 0 338 -143q35 57 121 101t199 44q225 0 340.5 -143t115.5 -352zM731 356v129q-86 12 -147 13q-231 0 -232 -133q0 -164 193 -164q186 -1 186 155zM979 588h412q-10 106 -62.5 179t-144.5 73t-143.5 -59.5t-61.5 -192.5z" />
<glyph unicode="&#xe7;" horiz-adv-x="966" d="M365 510q0 -184 68.5 -249.5t209.5 -65.5q127 0 254 51v-205q-106 -45 -227 -53l-123 -244h-213l176 246q-190 25 -290.5 158t-100.5 362q0 256 125 392t358 136q150 0 295 -57v-205q-121 49 -254 49q-141 0 -209.5 -64.5t-68.5 -250.5z" />
<glyph unicode="&#xe8;" horiz-adv-x="1144" d="M641 195q180 0 348 79v-198q-170 -92 -385 -92q-68 0 -128 11t-125.5 46t-113 89t-78 149.5t-30.5 220.5q0 246 109.5 393t347.5 147q225 0 340.5 -143t115.5 -352q0 -86 -4 -127h-657q10 -133 79.5 -178t180.5 -45zM586 840q-92 0 -143.5 -59.5t-61.5 -192.5h412 q-10 106 -62.5 179t-144.5 73zM535 1395l127 -240h-138l-190 240h201z" />
<glyph unicode="&#xe9;" horiz-adv-x="1144" d="M641 195q180 0 348 79v-198q-170 -92 -385 -92q-68 0 -128 11t-125.5 46t-113 89t-78 149.5t-30.5 220.5q0 246 109.5 393t347.5 147q225 0 340.5 -143t115.5 -352q0 -86 -4 -127h-657q10 -133 79.5 -178t180.5 -45zM586 840q-92 0 -143.5 -59.5t-61.5 -192.5h412 q-10 106 -62.5 179t-144.5 73zM496 1155l127 240h200l-190 -240h-137z" />
<glyph unicode="&#xea;" horiz-adv-x="1144" d="M641 195q180 0 348 79v-198q-170 -92 -385 -92q-68 0 -128 11t-125.5 46t-113 89t-78 149.5t-30.5 220.5q0 246 109.5 393t347.5 147q225 0 340.5 -143t115.5 -352q0 -86 -4 -127h-657q10 -133 79.5 -178t180.5 -45zM586 840q-92 0 -143.5 -59.5t-61.5 -192.5h412 q-10 106 -62.5 179t-144.5 73zM582 1270l-74 -115h-162l186 250h99l188 -250h-164z" />
<glyph unicode="&#xeb;" horiz-adv-x="1144" d="M641 195q180 0 348 79v-198q-170 -92 -385 -92q-68 0 -128 11t-125.5 46t-113 89t-78 149.5t-30.5 220.5q0 246 109.5 393t347.5 147q225 0 340.5 -143t115.5 -352q0 -86 -4 -127h-657q10 -133 79.5 -178t180.5 -45zM586 840q-92 0 -143.5 -59.5t-61.5 -192.5h412 q-10 106 -62.5 179t-144.5 73zM516 1350v-195h-207v195h207zM844 1350v-195h-207v195h207z" />
<glyph unicode="&#xec;" horiz-adv-x="638" d="M442 0v1022h-245v-1022h245zM264 1395l127 -240h-137l-191 240h201z" />
<glyph unicode="&#xed;" horiz-adv-x="638" d="M442 0v1022h-245v-1022h245zM248 1155l127 240h200l-190 -240h-137z" />
<glyph unicode="&#xee;" horiz-adv-x="638" d="M442 0v1022h-245v-1022h245zM319 1270l-73 -115h-162l186 250h99l188 -250h-164z" />
<glyph unicode="&#xef;" horiz-adv-x="638" d="M442 0v1022h-245v-1022h245zM260 1350v-195h-207v195h207zM588 1350v-195h-207v195h207z" />
<glyph unicode="&#xf0;" horiz-adv-x="1232" d="M887 1223q199 -195 198 -594q0 -645 -485 -645q-127 0 -224 43t-151.5 114.5t-81 152.5t-26.5 167q0 211 120.5 331.5t342.5 120.5q160 0 249 -69q-27 152 -145 237l-180 -123l-78 113l104 74q-41 10 -90 10q-82 0 -145 -10v219q92 20 160 20q178 0 315 -75l162 112 l78 -114zM600 201q39 0 76 16t79 57t64.5 131.5t18.5 217.5q-104 70 -238 69q-113 0 -174 -62.5t-61 -166.5q0 -31 7 -66t27.5 -84t72.5 -80.5t128 -31.5z" />
<glyph unicode="&#xf1;" horiz-adv-x="1273" d="M637 1038q213 0 333 -111.5t120 -312.5v-614h-244v635q0 41 -7.5 68.5t-30 57.5t-73.5 45t-131 15q-90 0 -190 -18v-803h-246v926q225 112 469 112zM948 1192q-57 -68 -122.5 -74t-127.5 24l-121 60q-60 31 -127 25t-124 -74v156q57 68 123.5 74t127.5 -25l121 -61 q61 -30 127 -23.5t123 74.5v-156z" />
<glyph unicode="&#xf2;" horiz-adv-x="1159" d="M583.5 1036q233.5 0 358.5 -136t125 -390t-125 -390t-358.5 -136t-358.5 136t-125 390t125 390t358.5 136zM584 186q121 0 179 66.5t58 257t-58 257.5t-179 67t-179.5 -67t-58.5 -257.5t58.5 -257t179.5 -66.5zM526 1395l127 -240h-137l-190 240h200z" />
<glyph unicode="&#xf3;" horiz-adv-x="1159" d="M583.5 1036q233.5 0 358.5 -136t125 -390t-125 -390t-358.5 -136t-358.5 136t-125 390t125 390t358.5 136zM584 186q121 0 179 66.5t58 257t-58 257.5t-179 67t-179.5 -67t-58.5 -257.5t58.5 -257t179.5 -66.5zM514 1155l127 240h201l-191 -240h-137z" />
<glyph unicode="&#xf4;" horiz-adv-x="1159" d="M583.5 1036q233.5 0 358.5 -136t125 -390t-125 -390t-358.5 -136t-358.5 136t-125 390t125 390t358.5 136zM584 186q121 0 179 66.5t58 257t-58 257.5t-179 67t-179.5 -67t-58.5 -257.5t58.5 -257t179.5 -66.5zM584 1270l-74 -115h-162l187 250h98l188 -250h-164z" />
<glyph unicode="&#xf5;" horiz-adv-x="1159" d="M583.5 1036q233.5 0 358.5 -136t125 -390t-125 -390t-358.5 -136t-358.5 136t-125 390t125 390t358.5 136zM584 186q121 0 179 66.5t58 257t-58 257.5t-179 67t-179.5 -67t-58.5 -257.5t58.5 -257t179.5 -66.5zM895 1192q-57 -68 -122.5 -74t-127.5 24l-122 60 q-60 31 -126.5 25t-124.5 -74v156q57 68 124 74t127 -25l122 -61q61 -30 127 -23.5t123 74.5v-156z" />
<glyph unicode="&#xf6;" horiz-adv-x="1159" d="M583.5 1036q233.5 0 358.5 -136t125 -390t-125 -390t-358.5 -136t-358.5 136t-125 390t125 390t358.5 136zM584 186q121 0 179 66.5t58 257t-58 257.5t-179 67t-179.5 -67t-58.5 -257.5t58.5 -257t179.5 -66.5zM524 1350v-195h-207v195h207zM852 1350v-195h-207v195h207z " />
<glyph unicode="&#xf7;" horiz-adv-x="1286" d="M211 610h866v-164h-866v164zM541 129v193h207v-193h-207zM541 737v193h207v-193h-207z" />
<glyph unicode="&#xf8;" horiz-adv-x="1175" d="M1139 1022l-150 -176q82 -127 82 -336q0 -254 -125 -390t-358 -136q-158 0 -271 65l-41 -49h-237l147 176q-82 133 -82 334q0 254 125 390t359 136q164 0 270 -63l43 49h238zM350 510q0 -68 10 -129l361 426q-47 27 -133 27q-121 0 -179.5 -67t-58.5 -257zM825 510 q0 82 -8 131l-360 -426q51 -29 131 -29q121 0 179 67t58 257z" />
<glyph unicode="&#xf9;" horiz-adv-x="1259" d="M844 1022h248v-559q0 -225 -123 -352t-340 -127t-339 127t-122 352v559h248v-592q0 -123 50 -177t163 -54q115 0 165 54t50 177v592zM582 1395l127 -240h-138l-190 240h201z" />
<glyph unicode="&#xfa;" horiz-adv-x="1259" d="M844 1022h248v-559q0 -225 -123 -352t-340 -127t-339 127t-122 352v559h248v-592q0 -123 50 -177t163 -54q115 0 165 54t50 177v592zM551 1155l127 240h201l-191 -240h-137z" />
<glyph unicode="&#xfb;" horiz-adv-x="1259" d="M844 1022h248v-559q0 -225 -123 -352t-340 -127t-339 127t-122 352v559h248v-592q0 -123 50 -177t163 -54q115 0 165 54t50 177v592zM629 1270l-74 -115h-162l187 250h98l188 -250h-164z" />
<glyph unicode="&#xfc;" horiz-adv-x="1259" d="M844 1022h248v-559q0 -225 -123 -352t-340 -127t-339 127t-122 352v559h248v-592q0 -123 50 -177t163 -54q115 0 165 54t50 177v592zM569 1350v-195h-207v195h207zM897 1350v-195h-207v195h207z" />
<glyph unicode="&#xfd;" horiz-adv-x="1107" d="M778 1022h260l-389 -1047q-82 -223 -178 -300.5t-199 -77.5q-76 0 -155 28v205q59 -25 116 -25q106 0 197 248l-367 969h261l229 -713zM610 1155h-137l127 240h201z" />
<glyph unicode="&#xfe;" horiz-adv-x="1157" d="M584 1028q229 0 352 -133t123 -383t-123 -383t-352 -133q-80 0 -168 16v-389h-246v1778h246v-389q88 16 168 16zM575 190q115 0 175.5 71t60.5 251t-60.5 251t-175.5 71q-90 0 -159 -17v-610q69 -17 159 -17z" />
<glyph unicode="&#xff;" horiz-adv-x="1107" d="M778 1022h260l-389 -1047q-82 -223 -178 -300.5t-199 -77.5q-76 0 -155 28v205q59 -25 116 -25q106 0 197 248l-367 969h261l229 -713zM492 1350v-195h-207v195h207zM819 1350v-195h-207v195h207z" />
<glyph unicode="&#x152;" horiz-adv-x="2074" d="M1939 1145h-663v-346h575v-232h-575v-346h663v-221h-909v27q-115 -43 -270 -43q-96 0 -179 16t-170 63.5t-148.5 122t-100.5 202.5t-39 294q0 168 39 295t100.5 202.5t148.5 123t170 63.5t179 16q147 0 270 -43v27h909v-221zM793 199q145 0 237 37v884q-111 45 -237 45 q-94 0 -161 -16t-131.5 -63.5t-98 -148.5t-33.5 -253q0 -154 33.5 -255t98 -148.5t131.5 -64.5t161 -17z" />
<glyph unicode="&#x153;" horiz-adv-x="1853" d="M1733 545q0 -86 -4 -127h-658q10 -133 80 -178t180 -45q180 0 348 79v-198q-170 -92 -385 -92q-233 0 -356 135q-123 -133 -356.5 -133t-358.5 136t-125 390t125 390t359 136q229 0 356 -133q119 135 338 135q225 0 341 -143t116 -352zM581.5 188q120.5 0 179 67 t58.5 257t-58.5 257t-179 67t-179 -67t-58.5 -257t58.5 -257t179 -67zM1071 588h412q-10 106 -62.5 179t-144.5 73t-143.5 -59.5t-61.5 -192.5z" />
<glyph unicode="&#x178;" horiz-adv-x="1368" d="M1341 1366l-534 -780v-586h-246v586l-536 780h297l362 -555l360 555h297zM625 1677v-194h-207v194h207zM952 1677v-194h-207v194h207z" />
<glyph unicode="&#x2c6;" horiz-adv-x="874" d="M436 1270l-74 -115h-161l186 250h98l189 -250h-164z" />
<glyph unicode="&#x2dc;" horiz-adv-x="1058" d="M838 1192q-57 -68 -123 -74t-127 24l-122 60q-60 31 -127 25t-124 -74v156q57 68 124 74t127 -25l122 -61q61 -30 126.5 -23.5t123.5 74.5v-156z" />
<glyph unicode="&#x2000;" horiz-adv-x="886" />
<glyph unicode="&#x2001;" horiz-adv-x="1775" />
<glyph unicode="&#x2002;" horiz-adv-x="886" />
<glyph unicode="&#x2003;" horiz-adv-x="1775" />
<glyph unicode="&#x2004;" horiz-adv-x="591" />
<glyph unicode="&#x2005;" horiz-adv-x="442" />
<glyph unicode="&#x2006;" horiz-adv-x="294" />
<glyph unicode="&#x2007;" horiz-adv-x="294" />
<glyph unicode="&#x2008;" horiz-adv-x="221" />
<glyph unicode="&#x2009;" horiz-adv-x="354" />
<glyph unicode="&#x200a;" horiz-adv-x="98" />
<glyph unicode="&#x2010;" horiz-adv-x="950" d="M162 707h624v-193h-624v193z" />
<glyph unicode="&#x2011;" horiz-adv-x="950" d="M162 707h624v-193h-624v193z" />
<glyph unicode="&#x2012;" horiz-adv-x="950" d="M162 707h624v-193h-624v193z" />
<glyph unicode="&#x2013;" horiz-adv-x="1146" d="M141 692h860v-192h-860v192z" />
<glyph unicode="&#x2014;" horiz-adv-x="1824" d="M162 692h1501v-192h-1501v192z" />
<glyph unicode="&#x2018;" horiz-adv-x="552" d="M96 1384h215l152 -401h-184z" />
<glyph unicode="&#x2019;" horiz-adv-x="552" d="M248 1384h215l-182 -401h-185z" />
<glyph unicode="&#x201a;" horiz-adv-x="651" d="M299 172h215l-182 -401h-185z" />
<glyph unicode="&#x201c;" horiz-adv-x="858" d="M408 1384h215l151 -401h-184zM96 1384h215l152 -401h-184z" />
<glyph unicode="&#x201d;" horiz-adv-x="858" d="M248 1384h215l-182 -401h-185zM559 1384h215l-182 -401h-184z" />
<glyph unicode="&#x201e;" horiz-adv-x="948" d="M299 172h215l-182 -401h-185zM610 172h215l-182 -401h-184z" />
<glyph unicode="&#x2022;" horiz-adv-x="890" d="M717 661.5q0 -112.5 -79 -192.5t-192 -80q-115 0 -194.5 80t-79.5 192.5t80 192.5t194 80q113 0 192 -80t79 -192.5z" />
<glyph unicode="&#x2026;" horiz-adv-x="1726" d="M459 227v-227h-240v227h240zM1505 227v-227h-239v227h239zM983 227v-227h-240v227h240z" />
<glyph unicode="&#x202f;" horiz-adv-x="354" />
<glyph unicode="&#x2039;" horiz-adv-x="770" d="M696 911l-372 -389l372 -391h-286l-347 391l347 389h286z" />
<glyph unicode="&#x203a;" horiz-adv-x="815" d="M111 131l372 389l-372 391h286l346 -391l-346 -389h-286z" />
<glyph unicode="&#x205f;" horiz-adv-x="442" />
<glyph unicode="&#x20ac;" d="M920 1163q-137 0 -231.5 -43t-141.5 -164h530v-178h-567q-4 -57 -4 -94t4 -94h567v-178h-530q47 -121 141 -164t232 -43q197 0 391 90v-229q-205 -82 -414 -82q-492 0 -604 428h-191v178h162q-4 57 -4 94t4 94h-162v178h191q115 428 604 428q209 0 414 -81v-230 q-194 90 -391 90z" />
<glyph unicode="&#x2122;" horiz-adv-x="1572" d="M100 1245v121h559v-121h-219v-561h-121v561h-219zM1096 1081l196 285h138v-682h-123v506l-211 -303l-211 303v-506h-123v682h137z" />
<glyph unicode="&#xe000;" horiz-adv-x="1020" d="M0 1020h1020v-1020h-1020v1020z" />
<glyph unicode="&#xfb01;" horiz-adv-x="1333" d="M682 1247q-96 0 -138 -46t-42 -179h235v-211h-235v-811h-246v811h-174v211h174q2 424 381 424q49 0 100 -10v-193q-37 4 -55 4zM1200 0v1022h-246v-1022h246zM1202 1161v225h-252v-225h252z" />
<glyph unicode="&#xfb02;" horiz-adv-x="1333" d="M682 1247q-96 0 -138 -46t-42 -179h235v-211h-235v-811h-246v811h-174v211h174q2 424 381 424q49 0 100 -10v-193q-37 4 -55 4zM1204 0v1411h-246v-1411h246z" />
<glyph unicode="&#xfb03;" horiz-adv-x="2101" d="M1904 0h-245v1022h245v-1022zM1906 1161h-251v225h251v-225zM1413 1247q-96 0 -138 -46t-42 -179h235v-211h-235v-811h-246v811h-174v211h174q2 424 381 424q49 0 100 -10v-193q-37 4 -55 4zM682 1247q-96 0 -138 -46t-42 -179h235v-211h-235v-811h-246v811h-174v211h174 q2 424 381 424q49 0 100 -10v-193q-37 4 -55 4z" />
<glyph unicode="&#xfb04;" horiz-adv-x="2121" d="M1915 0h-246v1411h246v-1411zM1413 1247q-96 0 -138 -46t-42 -179h235v-211h-235v-811h-246v811h-174v211h174q2 424 381 424q49 0 100 -10v-193q-37 4 -55 4zM682 1247q-96 0 -138 -46t-42 -179h235v-211h-235v-811h-246v811h-174v211h174q2 424 381 424q49 0 100 -10 v-193q-37 4 -55 4z" />
</font>
</defs>
</svg>
