<?xml version="1.0" standalone="no"?>
<!DOCTYPE svg PUBLIC "-//W3C//DTD SVG 1.1//EN" "http://www.w3.org/Graphics/SVG/1.1/DTD/svg11.dtd" >
<svg xmlns="http://www.w3.org/2000/svg">
<metadata>
This is a custom SVG webfont generated by Font Squirrel.
Copyright   : Copyright c 2011 by Vissol Ltd All rights reserved
Designer    : Joe Prince
Foundry     : Joe Prince
</metadata>
<defs>
<font id="webfontXhB2DgBK" horiz-adv-x="1159" >
<font-face units-per-em="2048" ascent="1638" descent="-410" />
<missing-glyph horiz-adv-x="692" />
<glyph unicode=" "  horiz-adv-x="692" />
<glyph unicode="&#x09;" horiz-adv-x="692" />
<glyph unicode="&#xa0;" horiz-adv-x="692" />
<glyph unicode="!" horiz-adv-x="882" d="M297 0v262h317v-262h-317zM588 391h-264l-45 975h354z" />
<glyph unicode="&#x22;" horiz-adv-x="899" d="M166 1384h254l-35 -411h-182zM477 1384h254l-35 -411h-182z" />
<glyph unicode="#" horiz-adv-x="1288" d="M1135 676h-154q-4 -27 -20.5 -111t-22.5 -131h143v-186h-174q-6 -37 -19.5 -111t-17.5 -98h-196l37 209h-219q-8 -43 -35 -209h-197l39 209h-147v186h176q4 27 19 110l24 132h-164v184h194l37 209h197l-37 -209h217q33 170 37 209h197l-39 -209h125v-184zM745 434l39 242 h-217q-6 -47 -22.5 -131t-20.5 -111h221z" />
<glyph unicode="$" horiz-adv-x="1212" d="M1128 387q0 -164 -118.5 -272.5t-298.5 -128.5v-207h-125v203q-250 12 -422 133v329q190 -158 422 -157v243q-94 23 -154.5 45.5t-134.5 68.5t-112 123t-38 185q0 193 123 299.5t316 120.5v217h125v-215q168 -14 311 -92v-307q-162 96 -311 98v-244q88 -25 148.5 -50 t129 -73.5t104 -129t35.5 -189.5zM457 958q0 -57 129 -96v203q-129 -23 -129 -107zM711 299q121 27 120 102q0 59 -120 99v-201z" />
<glyph unicode="%" horiz-adv-x="1890" d="M436 1360q291 0 291 -377t-291 -377q-289 0 -289 377t289 377zM436 838q84 0 84 145q0 88 -22.5 116.5t-61.5 28.5q-82 0 -82 -145t82 -145zM1430 760q291 0 290.5 -377t-290.5 -377q-289 0 -289 377t289 377zM1430 238q82 0 81.5 145t-81.5 145q-84 0 -84 -145t84 -145z M1245 1366h234l-858 -1366h-234z" />
<glyph unicode="&#x26;" horiz-adv-x="1337" d="M1055 305l254 -305h-308l-92 117q-147 -133 -352 -133q-115 0 -204 41t-139 105.5t-75.5 133t-25.5 133.5q0 113 45 207t192 189q0 2 -9 13l-15.5 19.5t-17.5 24.5t-19 30.5t-17.5 36t-15.5 41t-10 43t-4 46.5q0 137 86 232t247 95q160 0 249 -91t89 -239 q0 -111 -47 -179t-161 -140l22 -28l59 -69l107 -126l31 131h235q-32 -195 -104 -328zM577.5 1161q-45.5 0 -77 -32.5t-31.5 -79.5q0 -41 82 -144q82 47 108.5 80t26.5 72q0 43 -31.5 73.5t-77 30.5zM561 205q119 0 207 84l-268 323q-57 -31 -92 -63.5t-48.5 -64t-15.5 -48 t-2 -45.5q0 -23 9 -51.5t32 -60t69 -53t109 -21.5z" />
<glyph unicode="'" horiz-adv-x="583" d="M166 1384h254l-35 -411h-182z" />
<glyph unicode="(" horiz-adv-x="796" d="M659 1483q-211 -416 -210 -856q0 -436 210 -858h-258q-211 422 -211 858q0 440 211 856h258z" />
<glyph unicode=")" horiz-adv-x="796" d="M133 1483h258q211 -416 211 -856q0 -436 -211 -858h-258q211 422 211 858q0 440 -211 856z" />
<glyph unicode="*" horiz-adv-x="845" d="M684 1247l-156 -57l156 -57l-78 -140l-108 80l10 -131h-160l12 131l-110 -80l-78 140l158 57l-158 57l78 139l110 -79l-12 131h160l-10 -131l108 79z" />
<glyph unicode="+" horiz-adv-x="1128" d="M678 985v-258h256v-229h-256v-256h-229v256h-259v229h259v258h229z" />
<glyph unicode="," horiz-adv-x="751" d="M303 172h285l-197 -401h-239z" />
<glyph unicode="-" horiz-adv-x="950" d="M162 754h624v-240h-624v240z" />
<glyph unicode="." horiz-adv-x="811" d="M555 283v-283h-295v283h295z" />
<glyph unicode="/" horiz-adv-x="948" d="M723 1548h256l-754 -1749h-254z" />
<glyph unicode="0" horiz-adv-x="1345" d="M672 1384q553 0 553 -700t-553 -700t-553 700t553 700zM672 289q90 0 146 83t56 312q0 399 -202 399q-199 0 -199 -399q0 -229 55.5 -312t143.5 -83z" />
<glyph unicode="1" horiz-adv-x="1040" d="M211 1186l285 180h288v-1366h-352v975l-221 -135v346z" />
<glyph unicode="2" horiz-adv-x="1269" d="M1085 948q0 -158 -116.5 -325.5t-272.5 -305.5h398v-317h-936v279q580 434 579 643q0 61 -45 99t-133 38q-180 0 -391 -168v356q223 137 424 137q254 0 373.5 -128t119.5 -308z" />
<glyph unicode="3" horiz-adv-x="1228" d="M823 741q121 -35 195 -131t74 -227q0 -117 -49.5 -199t-133.5 -124t-170 -59t-184 -17q-190 0 -416 114v338q229 -137 402 -137q88 0 144 41t56 102.5t-47 105.5t-159 44h-224v254h228q72 0 107.5 32.5t35.5 79.5q0 49 -55.5 76t-126.5 27h-28h-30q-8 0 -28.5 -1 t-32.5 -3t-33.5 -5t-40 -8.5l-42 -12.5t-49.5 -17t-52 -23v297q182 96 375 96q88 0 170 -18t158.5 -58t122.5 -117t46 -181q0 -96 -65.5 -174.5t-147.5 -94.5z" />
<glyph unicode="4" horiz-adv-x="1265" d="M985 1366v-719h164v-299h-164v-348h-350v348h-555v270l598 748h307zM635 647v240l-180 -240h180z" />
<glyph unicode="5" horiz-adv-x="1280" d="M631 938q229 0 356 -125t127 -385q0 -127 -41 -218t-112.5 -138t-151.5 -67.5t-174 -20.5q-213 0 -442 114v334q213 -135 395 -135q88 0 132 49t44 113q0 82 -45 124t-117 42q-147 4 -246 -60l-194 142l74 661h806v-315h-499l-11 -119q31 4 99 4z" />
<glyph unicode="6" horiz-adv-x="1234" d="M645 901q96 0 170 -15.5t148.5 -55t115.5 -129t41 -220.5q0 -90 -27.5 -175t-85 -158.5t-158.5 -118.5t-233 -45q-506 0 -505 649q0 193 49 338t117.5 221t163 122t165 58t142.5 12q176 0 278 -49v-297q-145 45 -250 45q-115 0 -211 -51t-110 -158q67 27 190 27zM616 287 q61 0 98.5 45t44.5 83t7 68q0 78 -38 137.5t-116 59.5q-98 0 -151 -23q-4 -180 42.5 -275t112.5 -95z" />
<glyph unicode="7" horiz-adv-x="1226" d="M135 1016v350h1004v-258l-537 -1108h-407l495 1016h-555z" />
<glyph unicode="8" horiz-adv-x="1261" d="M874 735q113 -31 193 -123t80 -215q0 -205 -135 -309t-379 -104t-379 104.5t-135 308.5q0 123 78.5 215.5t193.5 122.5q-88 25 -153.5 98.5t-65.5 174.5q0 377 461 376q459 0 459 -376q0 -100 -65 -175t-153 -98zM633 1096q-57 0 -88 -37t-31 -80q0 -53 37 -83t82 -30 q43 0 80 30t37 83q0 43 -31 80t-86 37zM633 272q78 0 118 48.5t40 121.5q0 51 -41 93.5t-117 42.5q-78 0 -119 -42t-41 -94q0 -74 40 -122t120 -48z" />
<glyph unicode="9" horiz-adv-x="1259" d="M586 467q-96 0 -170 15.5t-148.5 55.5t-115.5 129t-41 220q0 90 27.5 175t85 158.5t158.5 118.5t232 45q506 0 506 -649q0 -193 -49 -338t-117.5 -221t-163 -122t-165 -58t-142.5 -12q-176 0 -278 49v297q145 -45 250 -45q115 0 211 51t110 158q-67 -27 -190 -27z M614 1081q-61 0 -98 -45t-44 -83t-7 -68q0 -78 38 -137.5t115 -59.5q98 0 152 23q4 180 -43 275t-113 95z" />
<glyph unicode=":" horiz-adv-x="868" d="M575 952v-282h-294v282h294zM575 354v-282h-294v282h294z" />
<glyph unicode=";" horiz-adv-x="913" d="M317 172h285l-196 -401h-240zM604 952v-282h-295v282h295z" />
<glyph unicode="&#x3c;" horiz-adv-x="1368" d="M1108 1024v-279l-504 -196l504 -199v-278l-862 383v186z" />
<glyph unicode="=" horiz-adv-x="1306" d="M250 524h805v-239h-805v239zM250 938h805v-240h-805v240z" />
<glyph unicode="&#x3e;" horiz-adv-x="1351" d="M238 745v279l862 -383v-186l-862 -383v278l503 199z" />
<glyph unicode="?" horiz-adv-x="1075" d="M940 985q0 -70 -22.5 -126t-56.5 -92l-73 -74l-72 -72q-34 -35 -56.5 -88.5t-22.5 -118.5v-21h-281v27q0 104 31 184t75 127t89 86t75.5 81t30.5 89q0 45 -15 76t-46 43t-58.5 16t-66.5 4q-180 0 -307 -102v262q59 41 155.5 68.5t196.5 27.5q115 0 200 -33.5t132 -92 t69.5 -126t22.5 -145.5zM338 0v262h317v-262h-317z" />
<glyph unicode="@" horiz-adv-x="1869" d="M1038 1233q106 0 220 -38t220.5 -112.5t175 -211t68.5 -308.5q0 -207 -92 -362.5t-268 -155.5q-68 0 -114 41t-64 90q-31 -57 -103.5 -94t-175.5 -37q-156 0 -246 70.5t-90 193.5q0 53 17.5 100.5t63.5 95.5t143.5 76.5t238.5 28.5q35 0 105 -4q-2 66 -35 99.5t-129 33.5 q-162 0 -285 -45l29 178q168 53 274 54q340 0 340 -308q0 -49 -15.5 -151t-15.5 -160q0 -123 82 -123q70 0 139.5 99.5t69.5 279.5q0 162 -88 288t-213 186.5t-258 60.5q-287 0 -509 -218t-222 -513q0 -125 44 -226.5t107.5 -158t142.5 -94.5t138.5 -51t102.5 -13 q258 0 469 104l-23 -149q-184 -86 -444 -86q-106 0 -217 38t-216.5 113.5t-172 213t-66.5 315.5q0 182 79 346t203.5 274.5t280 175t309.5 64.5zM905 242q111 0 154 46t53 158q-27 2 -80 3q-266 0 -266 -136q0 -71 139 -71z" />
<glyph unicode="A" horiz-adv-x="1503" d="M918 1366l542 -1366h-379l-106 328h-447l-106 -328h-379l543 1366h332zM612 588h277l-137 424z" />
<glyph unicode="B" horiz-adv-x="1349" d="M975 719q274 -78 274 -342q0 -377 -567 -377h-504v1366h463q541 0 541 -383q0 -66 -21.5 -116t-59.5 -79.5t-64.5 -43t-61.5 -25.5zM530 1079v-248h181q49 0 89 31t40 84q0 70 -46 101.5t-104 31.5h-160zM731 289h8q69 0 117 36q51 38 51 113.5t-57 110.5t-125 35h-195 v-295h201z" />
<glyph unicode="C" horiz-adv-x="1314" d="M786 1079q-141 0 -225 -86t-84 -309t84 -309t225 -86q213 0 418 98v-305q-242 -96 -438 -96q-123 0 -226.5 29.5t-201.5 101t-155.5 216t-57.5 351.5t57.5 351.5t155.5 216t201.5 101t226.5 29.5q197 0 438 -96v-305q-205 98 -418 98z" />
<glyph unicode="D" horiz-adv-x="1443" d="M670 1366q317 0 483 -174t166 -510q0 -334 -166 -508t-483 -174h-492v1366h492zM670 289q297 0 297 393q0 397 -297 397h-140v-790h140z" />
<glyph unicode="E" horiz-adv-x="1247" d="M1130 1079h-600v-252h521v-288h-521v-250h600v-289h-952v1366h952v-287z" />
<glyph unicode="F" horiz-adv-x="1187" d="M1106 1079h-576v-276h498v-289h-498v-514h-352v1366h928v-287z" />
<glyph unicode="G" horiz-adv-x="1427" d="M752 807h524v-690q-223 -131 -510 -131q-96 0 -180 16t-171 63.5t-149.5 122t-101.5 201.5t-39 293q0 207 57.5 351.5t155.5 216t201.5 101t226.5 29.5q244 0 471 -102v-283q-207 84 -418 84q-344 0 -344 -395q0 -223 90 -309t242 -86q119 0 188 30v226h-243v262z" />
<glyph unicode="H" horiz-adv-x="1503" d="M971 1366h352v-1366h-352v539h-439v-539h-352v1366h352v-539h439v539z" />
<glyph unicode="I" horiz-adv-x="708" d="M532 0h-352v1366h352v-1366z" />
<glyph unicode="J" horiz-adv-x="1060" d="M514 1366h352v-889q0 -123 -32.5 -215t-79.5 -143t-114 -83t-122 -41t-115 -9q-176 0 -344 106v326q141 -129 293 -129q72 0 117 41t45 125v911z" />
<glyph unicode="K" horiz-adv-x="1505" d="M1419 0h-444l-348 532l-97 -108v-424h-352v1366h352v-481l375 481h475l-536 -594z" />
<glyph unicode="L" horiz-adv-x="1179" d="M530 317h607v-317h-959v1366h352v-1049z" />
<glyph unicode="M" horiz-adv-x="1695" d="M1169 1366h347v-1366h-353v846l-315 -453l-316 453v-846h-352v1366h346l322 -465z" />
<glyph unicode="N" horiz-adv-x="1619" d="M1085 1366h353v-1366h-348l-560 813v-813h-352v1366h352l555 -819v819z" />
<glyph unicode="O" horiz-adv-x="1538" d="M766 1380q96 0 180 -16t171 -63.5t149.5 -122t101.5 -201.5t39 -293t-39 -293t-101.5 -201.5t-149.5 -122t-171 -63.5t-180 -16t-180 16t-171 63.5t-149.5 122t-101.5 201.5t-39 293t39 293t101.5 201.5t149.5 122t171 63.5t180 16zM766 289q131 0 210 86t79 309t-79 309 t-210 86t-210 -86t-79 -309t79 -309t210 -86z" />
<glyph unicode="P" horiz-adv-x="1337" d="M729 1366q248 0 385 -126t137 -353q0 -229 -137 -355t-385 -126h-201v-406h-352v1366h553zM696 696q106 0 155.5 56.5t49.5 134.5q0 76 -49 134t-156 58h-168v-383h168z" />
<glyph unicode="Q" horiz-adv-x="1529" d="M1407 684q0 -604 -494 -684q8 -162 213 -162v-227q-500 0 -505 387q-496 80 -496 686q0 166 39 293t101.5 201.5t149.5 122t171 63.5t180 16t180 -16t171 -63.5t149.5 -122t101.5 -201.5t39 -293zM766 289q131 0 210 86t79 309t-79 309t-210 86t-210 -86t-79 -309 t79 -309t210 -86z" />
<glyph unicode="R" horiz-adv-x="1396" d="M993 510l330 -510h-393l-254 457h-146v-457h-352v1366h539q250 0 400.5 -116.5t150.5 -327.5q0 -162 -75 -266.5t-200 -145.5zM530 721h209q72 0 124 50t52 128q0 80 -52 130t-124 50h-209v-358z" />
<glyph unicode="S" horiz-adv-x="1232" d="M633 1378q195 0 368 -94v-307q-166 98 -317 98q-80 0 -142.5 -26.5t-62.5 -87.5q0 -39 46 -65t117 -39t151.5 -43t151.5 -73t117 -133t46 -219q0 -180 -143.5 -292.5t-348.5 -112.5q-281 0 -473 133v329q190 -158 422 -157q78 0 134.5 29.5t56.5 84.5q0 37 -35 63 t-90.5 41l-122 31.5t-134 45t-122.5 70.5t-90 119t-35 181q0 211 145.5 317.5t360.5 106.5z" />
<glyph unicode="T" horiz-adv-x="1191" d="M25 1366h1142v-319h-397v-1047h-352v1047h-393v319z" />
<glyph unicode="U" horiz-adv-x="1533" d="M993 1366h353v-778q0 -287 -154 -444.5t-430.5 -157.5t-430 157.5t-153.5 444.5v778h352v-819q0 -131 56.5 -194.5t175.5 -63.5t175 63.5t56 194.5v819z" />
<glyph unicode="V" horiz-adv-x="1413" d="M707 399l305 967h377l-521 -1366h-319l-524 1366h376z" />
<glyph unicode="W" horiz-adv-x="2045" d="M1653 1366h368l-440 -1366h-321l-236 782l-236 -782h-321l-440 1366h368l234 -862l243 862h304l243 -862z" />
<glyph unicode="X" horiz-adv-x="1443" d="M1427 0h-430l-288 410l-289 -410h-395l485 692l-475 674h430l258 -369l260 369h403l-462 -653z" />
<glyph unicode="Y" horiz-adv-x="1492" d="M1034 1366h428l-542 -791v-575h-353v575l-542 791h428l290 -520z" />
<glyph unicode="Z" horiz-adv-x="1337" d="M1186 1081l-598 -772h598v-309h-1053v291l617 762h-611v313h1047v-285z" />
<glyph unicode="[" horiz-adv-x="849" d="M471 1178v-1168h209v-248h-436v1663h436v-247h-209z" />
<glyph unicode="\" horiz-adv-x="880" d="M-76 1548h256l752 -1749h-254z" />
<glyph unicode="]" horiz-adv-x="849" d="M381 10v1168h-209v247h436v-1663h-436v248h209z" />
<glyph unicode="^" horiz-adv-x="1210" d="M676 1413l289 -455h-230l-131 244l-131 -244h-227l282 455h148z" />
<glyph unicode="_" horiz-adv-x="1118" d="M0 -49h1118v-209h-1118v209z" />
<glyph unicode="`" horiz-adv-x="571" d="M332 1393l127 -240h-176l-191 240h240z" />
<glyph unicode="a" horiz-adv-x="1142" d="M543 1036q225 0 348 -114.5t123 -329.5v-242q0 -190 -102.5 -277t-366.5 -87q-438 0 -439 315q0 31 7.5 63.5t35 78.5t72.5 81t134 59.5t208 24.5q63 0 92 -2q0 84 -41 120t-96 36q-154 0 -311 -64v267q178 71 336 71zM662 375v86q-49 4 -68 4q-135 0 -135 -103 q0 -109 100 -108q49 0 76 39t27 82z" />
<glyph unicode="b" horiz-adv-x="1230" d="M643 1034q223 0 344 -133t121 -383q0 -535 -504 -534q-137 0 -229 30.5t-136 87t-61.5 114.5t-17.5 132v1065h350v-383q29 4 133 4zM618 213q72 0 105 90t33 227q0 133 -45 209t-133 76q-18 0 -68 -4v-524q0 -29 26.5 -51.5t81.5 -22.5z" />
<glyph unicode="c" horiz-adv-x="993" d="M670 768q-90 0 -144.5 -64.5t-54.5 -193.5t54.5 -193.5t144.5 -64.5q119 0 258 63v-262q-143 -70 -322 -69q-236 0 -361.5 136t-125.5 390t126 390t361 136q178 0 322 -69v-262q-139 63 -258 63z" />
<glyph unicode="d" horiz-adv-x="1222" d="M594 1034q104 0 133 -4v383h350v-1065q0 -74 -17.5 -132t-61.5 -114.5t-136 -87t-229 -30.5q-504 0 -504 534q0 250 121 383t344 133zM618 213q55 0 82 22.5t27 51.5v524q-49 4 -68 4q-88 0 -133 -75.5t-45 -209.5q0 -137 32.5 -227t104.5 -90z" />
<glyph unicode="e" horiz-adv-x="1169" d="M1065 541q0 -61 -6 -111h-582q0 -72 67.5 -121t151.5 -49q188 0 322 80v-248q-166 -106 -402 -106q-68 0 -129 11t-128.5 46t-115.5 89t-80 149.5t-32 220.5q0 244 113.5 390t355.5 146q229 0 347 -144t118 -353zM485 641h230q-4 59 -35 116.5t-80 57.5t-80 -53t-35 -121 z" />
<glyph unicode="f" horiz-adv-x="776" d="M631 1446q84 0 151 -23v-211q-29 8 -55 9q-72 0 -109.5 -63.5t-37.5 -135.5h202v-248h-207v-774h-352v774h-141v248h145q1 424 404 424z" />
<glyph unicode="g" horiz-adv-x="1153" d="M618 1036q117 0 202 -30.5t128 -84t62.5 -112.5t19.5 -131v-637q0 -51 -10 -102.5t-42 -115t-82 -110.5t-139 -79.5t-204 -32.5q-156 0 -322 53v250q115 -66 252 -66q102 0 145.5 48t49.5 130q-53 -4 -98 -4q-211 0 -332 131t-121 371q-1 522 491 522zM680 225v490 q0 80 -80 80q-57 0 -89 -81t-32 -204q0 -127 40 -209t110 -82q24 0 51 6z" />
<glyph unicode="h" horiz-adv-x="1316" d="M733 1036q213 0 333 -117.5t120 -316.5v-602h-352v657q0 113 -181 113q-55 0 -94 -14v-756h-352v1411h352v-387q74 12 174 12z" />
<glyph unicode="i" horiz-adv-x="735" d="M549 0h-352v1022h352v-1022zM553 1139h-360v268h360v-268z" />
<glyph unicode="j" horiz-adv-x="667" d="M174 1022h352v-1008q0 -119 -40 -201.5t-114.5 -126.5t-162.5 -62.5t-203 -18.5v254q168 0 168 125v1038zM530 1139h-360v268h360v-268z" />
<glyph unicode="k" horiz-adv-x="1318" d="M530 293v-293h-352v1405h352v-631l215 248h451l-416 -451l461 -571h-426l-250 330z" />
<glyph unicode="l" horiz-adv-x="761" d="M559 0h-352v1411h352v-1411z" />
<glyph unicode="m" horiz-adv-x="1939" d="M1313 1036q215 0 337 -110.5t122 -323.5v-602h-353v616q0 158 -141 158q-80 0 -141 -20q27 -80 26 -152v-602h-352v621q0 150 -133 149q-55 0 -123 -18v-752h-352v930l14 6l42 15l60.5 20.5t78.5 23t92.5 20.5t105.5 15t113 6q147 0 249 -59q175 59 355 59z" />
<glyph unicode="n" horiz-adv-x="1325" d="M686 1036q217 0 344 -115.5t127 -318.5v-602h-352v657q0 31 -8.5 51.5t-48 41t-115.5 20.5q-55 0 -103 -12v-758h-352v913q246 123 508 123z" />
<glyph unicode="o" d="M583.5 1034q235.5 0 363.5 -135t128 -389t-128 -389t-363.5 -135t-363.5 135t-128 389t128 389t363.5 135zM583.5 240q139.5 0 139.5 270t-139.5 270t-139.5 -270t139.5 -270z" />
<glyph unicode="p" horiz-adv-x="1232" d="M653 -14q-104 0 -133 4v-369h-350v1051q0 74 17.5 132t61.5 114.5t136 87t229 30.5q504 0 504 -534q0 -250 -121 -383t-344 -133zM629 807q-55 0 -82 -22.5t-27 -51.5v-524q49 -4 68 -4q88 0 133 75.5t45 208.5q0 137 -32.5 227.5t-104.5 90.5z" />
<glyph unicode="q" horiz-adv-x="1228" d="M580 -14q-223 0 -344 133t-121 383q0 535 503 534q137 0 229.5 -30.5t136.5 -87t61.5 -115t17.5 -131.5v-1051h-350v369q-29 -4 -133 -4zM604 807q-72 0 -104.5 -90t-32.5 -228q0 -133 45 -208.5t133 -75.5q18 0 68 4v524q0 29 -27 51.5t-82 22.5z" />
<glyph unicode="r" horiz-adv-x="813" d="M164 922q264 109 584 116v-295q-127 -2 -232 -18v-725h-352v922z" />
<glyph unicode="s" horiz-adv-x="962" d="M498 1036q156 0 293 -84v-233q-133 74 -236 74q-111 0 -111 -70q0 -20 45.5 -40.5t110 -46.5t128 -61.5t108.5 -105.5t45 -164q0 -141 -113 -230t-293 -89q-190 0 -346 100v272q160 -125 309 -125q92 0 92 56q0 27 -45 48t-109.5 45t-130 57.5t-110.5 99t-45 155.5 q0 166 115 254t293 88z" />
<glyph unicode="t" horiz-adv-x="839" d="M754 786h-213v-495q0 -23 18.5 -39t44.5 -16q63 0 150 51v-252q-88 -49 -205 -49q-178 0 -269.5 94t-91.5 264v442h-139v236h139v303h353v-303h213v-236z" />
<glyph unicode="u" horiz-adv-x="1280" d="M770 1022h352v-561q0 -475 -475 -475t-475 475v561h352v-623q0 -150 123 -149.5t123 149.5v623z" />
<glyph unicode="v" horiz-adv-x="1224" d="M782 1022h377l-391 -1022h-311l-391 1022h374l170 -629z" />
<glyph unicode="w" horiz-adv-x="1763" d="M1307 1022h372l-362 -1022h-309l-127 459l-127 -459h-310l-362 1022h373l133 -616l162 616h262l162 -616z" />
<glyph unicode="x" horiz-adv-x="1249" d="M1159 1022l-350 -479l387 -543h-416l-172 252l-166 -252h-389l363 518l-353 504h414l148 -207l145 207h389z" />
<glyph unicode="y" horiz-adv-x="1169" d="M737 1022h363l-373 -1002q-90 -231 -177 -327t-212 -96q-133 0 -223 43v256q70 -25 135 -25q47 0 92 56.5t78 170.5l-357 924h365l156 -588z" />
<glyph unicode="z" horiz-adv-x="1030" d="M909 737l-381 -444h381v-293h-815v289l424 461h-414v272h805v-285z" />
<glyph unicode="{" horiz-adv-x="804" d="M530 823q0 -94 -56 -147t-138 -72q82 -18 138 -71.5t56 -147.5v-238q0 -45 3.5 -67.5t27 -45t68.5 -22.5h45v-235h-62q-162 0 -242.5 90t-80.5 235v271q0 41 -25.5 69.5t-50.5 36.5l-27 6v238q4 0 11.5 2t25 10t30.5 19.5t24.5 33t11.5 48.5v270q0 145 81 235.5t242 90.5 h62v-236h-45q-45 0 -68.5 -22.5t-27 -45t-3.5 -67.5v-238z" />
<glyph unicode="|" horiz-adv-x="1005" d="M649 -203h-270v1569h270v-1569z" />
<glyph unicode="}" horiz-adv-x="804" d="M299 823v238q0 45 -3 67.5t-26.5 45t-68.5 22.5h-45v236h61q162 0 243 -90.5t81 -235.5v-270q0 -41 25.5 -70t51.5 -37l25 -6v-238q-4 0 -11 -2t-24.5 -10t-31 -19.5t-24.5 -33t-11 -47.5v-271q0 -145 -81 -235t-243 -90h-61v235h45q45 0 68.5 22.5t26.5 45t3 67.5v238 q0 94 56.5 147.5t138.5 71.5q-82 18 -138.5 71.5t-56.5 147.5z" />
<glyph unicode="~" horiz-adv-x="1071" d="M870 496q-57 -68 -127.5 -74t-138.5 23l-135 61q-68 31 -139.5 24.5t-128.5 -73.5v186q57 68 128.5 74t139.5 -25l135 -60q68 -30 138.5 -24t127.5 74v-186z" />
<glyph unicode="&#xa1;" horiz-adv-x="882" d="M606 1022v-262h-317v262h317zM315 631h265l45 -975h-355z" />
<glyph unicode="&#xa2;" horiz-adv-x="1007" d="M926 877q-90 43 -162 55v-500q70 14 162 55v-262q-74 -35 -162 -53v-172h-131v156h-29q-236 0 -361.5 136t-125.5 390t126 390t361 136h29v158h131v-174q90 -16 162 -53v-262zM469 682q0 -115 45 -178.5t119 -75.5v510q-164 -29 -164 -256z" />
<glyph unicode="&#xa3;" horiz-adv-x="1153" d="M739 1114q-90 0 -144 -35t-54 -104v-154h340v-268h-340v-211q266 -121 497 33v-297q-82 -76 -181 -90.5t-192 11.5l-188 51q-94 26 -194.5 11.5t-182.5 -92.5v307q80 55 158 74v203h-158v268h158v168q0 162 105.5 277.5t328.5 115.5q162 0 346 -106v-281 q-141 119 -299 119z" />
<glyph unicode="&#xa5;" horiz-adv-x="1492" d="M1475 1366l-408 -594h137v-201h-272v-155h272v-201h-272v-215h-352v215h-273v201h273v155h-273v201h137l-407 594h428l291 -520l291 520h428z" />
<glyph unicode="&#xa7;" horiz-adv-x="1247" d="M1126 647q0 -61 -48 -100t-94 -50.5t-93 -13.5q49 -27 74.5 -87t25.5 -122q0 -137 -119.5 -213.5t-328.5 -76.5q-213 0 -410 131v276q172 -154 363 -153q66 0 120 17t54 58q0 27 -56.5 49.5t-136.5 46t-158.5 56.5t-135 95.5t-56.5 146.5q0 98 91 145t192 49 q-43 4 -95.5 60.5t-52.5 121.5q0 86 39 148.5t106.5 94.5t141.5 45t160 13q180 0 362 -104v-248q-160 92 -311 92q-170 0 -170 -80q0 -31 84 -63.5t184 -62t184 -100.5t84 -171zM721 596q78 14 78 45q0 18 -49.5 38.5t-123 43t-89.5 29.5q-84 -10 -84 -37q0 -18 58 -43 t210 -76z" />
<glyph unicode="&#xa8;" horiz-adv-x="899" d="M141 1139v223h246v-223h-246zM489 1139v223h246v-223h-246z" />
<glyph unicode="&#xa9;" horiz-adv-x="1593" d="M797 1382q291 0 495.5 -204.5t204.5 -495.5q0 -289 -205 -493.5t-495 -204.5q-289 0 -494 204.5t-205 493.5q0 291 205 495.5t494 204.5zM796.5 113q235.5 0 403.5 166.5t168 402.5q0 238 -167 404.5t-404 166.5q-236 0 -403 -166.5t-167 -404.5q0 -236 167 -402.5 t402.5 -166.5zM817 915q-180 0 -180 -231t180 -231q123 0 246 57v-178q-139 -57 -258 -58q-72 0 -132.5 17.5t-117.5 59.5t-91 127t-34 206t34 206t91 126t117.5 58.5t132.5 17.5q117 0 258 -56v-178q-123 57 -246 57z" />
<glyph unicode="&#xaa;" horiz-adv-x="833" d="M397 1382q125 0 195 -64.5t70 -182.5v-136q0 -106 -57.5 -155t-205.5 -49q-246 0 -245 176q0 23 8 47t31.5 55t79 50.5t137.5 19.5h51q0 86 -78 86q-80 0 -174 -35v147q102 41 188 41zM465 1012v49q-8 0 -20.5 1t-18.5 1q-76 0 -76 -57q0 -61 58 -62q27 0 42 22.5 t15 45.5z" />
<glyph unicode="&#xab;" horiz-adv-x="1347" d="M1249 911l-372 -389l372 -391h-338l-346 391l346 389h338zM754 911l-373 -389l373 -391h-338l-346 391l346 389h338z" />
<glyph unicode="&#xac;" horiz-adv-x="1300" d="M199 684h903v-389h-211v170h-692v219z" />
<glyph unicode="&#xad;" horiz-adv-x="950" d="M162 754h624v-240h-624v240z" />
<glyph unicode="&#xae;" horiz-adv-x="1593" d="M799 1382q291 0 495.5 -204.5t204.5 -495.5q0 -289 -204.5 -493.5t-495.5 -204.5q-289 0 -494 204.5t-205 493.5q0 291 205 495.5t494 204.5zM798.5 113q235.5 0 403.5 166.5t168 402.5q0 238 -167 404.5t-404 166.5q-236 0 -403 -166.5t-167 -404.5q0 -236 167 -402.5 t402.5 -166.5zM973 584l192 -299h-229l-148 266h-83v-266h-207v796h315q145 0 233.5 -67.5t88.5 -190.5q0 -94 -44 -155t-118 -84zM825 707q41 0 72 28.5t31 73.5q0 47 -31 76.5t-72 29.5h-120v-208h120z" />
<glyph unicode="&#xaf;" horiz-adv-x="825" d="M655 1319v-180h-479v180h479z" />
<glyph unicode="&#xb0;" horiz-adv-x="792" d="M391.5 1370q108.5 0 165.5 -58.5t57 -168.5q0 -109 -57 -167t-165.5 -58t-166 58t-57.5 167q0 111 57.5 169t166 58zM391 1036q51 0 73.5 25.5t22.5 83t-22.5 82t-73.5 24.5q-98 0 -98 -106q0 -57 23.5 -83t74.5 -26z" />
<glyph unicode="&#xb1;" horiz-adv-x="1198" d="M723 838h256v-230h-256v-256h-229v256h-258v230h258v258h229v-258zM236 12v215h743v-215h-743z" />
<glyph unicode="&#xb2;" horiz-adv-x="696" d="M602 1458q0 -154 -211 -340h215v-170h-504v150q311 231 312 346q0 74 -97 74q-98 0 -211 -91v193q121 74 230 74q137 0 201.5 -69t64.5 -167z" />
<glyph unicode="&#xb3;" horiz-adv-x="686" d="M467 1346q66 -18 105.5 -70.5t39.5 -122.5q0 -119 -86 -167t-202 -48q-96 0 -224 61v183q121 -74 215 -74q49 0 79 21.5t30 54.5q0 82 -111 82h-120v135h122q76 0 76 61q0 27 -29.5 41.5t-66.5 14.5q-98 0 -180 -39v159q100 53 200 54q106 0 186.5 -47.5t80.5 -155.5 q0 -51 -36 -93t-79 -50z" />
<glyph unicode="&#xb4;" horiz-adv-x="559" d="M121 1139l127 239h239l-190 -239h-176z" />
<glyph unicode="&#xb5;" horiz-adv-x="1325" d="M829 1022h353v-913q-246 -123 -508 -123q-57 0 -119 10v-426h-352v1452h352v-657q0 -31 8 -51.5t48 -41t116 -20.5q55 0 102 12v758z" />
<glyph unicode="&#xb6;" horiz-adv-x="1083" d="M991 1366v-1366h-274v371h-80q-270 0 -413.5 129t-143.5 370q0 240 143.5 368t413.5 128h354z" />
<glyph unicode="&#xb7;" horiz-adv-x="741" d="M510 702v-282h-295v282h295z" />
<glyph unicode="&#xb8;" horiz-adv-x="585" d="M473 -10l-127 -240h-240l191 240h176z" />
<glyph unicode="&#xb9;" horiz-adv-x="512" d="M92 1587l154 96h155v-735h-190v525l-119 -72v186z" />
<glyph unicode="&#xba;" horiz-adv-x="868" d="M428 1384q131 0 202.5 -75.5t71.5 -218.5q0 -141 -71.5 -217t-202.5 -76q-133 0 -204.5 75.5t-71.5 217.5q0 143 71.5 218.5t204.5 75.5zM428 940q78 0 78 150q0 152 -78 151q-80 0 -80 -151q0 -150 80 -150z" />
<glyph unicode="&#xbb;" horiz-adv-x="1374" d="M479 522l-373 389h338l347 -389l-347 -391h-338zM975 522l-373 389h338l346 -389l-346 -391h-338z" />
<glyph unicode="&#xbc;" horiz-adv-x="1476" d="M1065 1403h192l-895 -1448h-192zM92 1284l154 96h155v-735h-190v524l-119 -71v186zM1327 735v-387h88v-162h-88v-186h-188v186h-299v146l321 403h166zM1139 348v129l-99 -129h99z" />
<glyph unicode="&#xbd;" horiz-adv-x="1550" d="M1065 1403h192l-895 -1448h-192zM92 1284l154 96h155v-735h-190v524l-119 -71v186zM1446 510q0 -154 -211 -340h215v-170h-504v150q311 231 311 346q0 74 -96 73q-98 0 -211 -90v193q121 74 230 73q137 0 201.5 -68.5t64.5 -166.5z" />
<glyph unicode="&#xbe;" horiz-adv-x="1757" d="M504 1042q66 -18 105.5 -70t39.5 -122q0 -119 -86 -167t-203 -48q-96 0 -223 61v183q121 -74 215 -74q49 0 79 21.5t30 54.5q0 82 -111 82h-121v135h123q76 0 76 61q0 27 -29.5 41t-66.5 14q-98 0 -180 -38v159q100 53 200 54q106 0 186 -47.5t80 -155.5 q0 -51 -35.5 -93.5t-78.5 -50.5zM1282 1403h193l-895 -1448h-193zM1554 735v-387h88v-162h-88v-186h-188v186h-299v146l322 403h165zM1366 348v129l-98 -129h98z" />
<glyph unicode="&#xbf;" horiz-adv-x="1075" d="M164 37q0 70 22.5 126t56.5 92l72 74l73 72q34 35 56.5 88.5t22.5 118.5v21h281v-27q0 -104 -31 -184t-75 -127t-89 -86t-76 -81t-31 -89q0 -45 15.5 -76t46.5 -43t58.5 -16t66.5 -4q180 0 307 102v-262q-59 -41 -155.5 -68.5t-196.5 -27.5q-115 0 -200 33.5t-132 92 t-69.5 126t-22.5 145.5zM766 1022v-262h-317v262h317z" />
<glyph unicode="&#xc0;" horiz-adv-x="1503" d="M918 1366l542 -1366h-379l-106 328h-447l-106 -328h-379l543 1366h332zM612 588h277l-137 424zM717 1722l127 -239h-176l-191 239h240z" />
<glyph unicode="&#xc1;" horiz-adv-x="1503" d="M918 1366l542 -1366h-379l-106 328h-447l-106 -328h-379l543 1366h332zM612 588h277l-137 424zM659 1483l127 239h240l-190 -239h-177z" />
<glyph unicode="&#xc2;" horiz-adv-x="1503" d="M918 1366l542 -1366h-379l-106 328h-447l-106 -328h-379l543 1366h332zM612 588h277l-137 424zM801 1733l246 -250h-209l-86 90l-86 -90h-209l245 250h99z" />
<glyph unicode="&#xc3;" horiz-adv-x="1503" d="M918 1366l542 -1366h-379l-106 328h-447l-106 -328h-379l543 1366h332zM612 588h277l-137 424zM1063 1536q-57 -68 -123 -74t-127 24l-122 60q-60 31 -126.5 25t-124.5 -74v174q57 68 124 74t127 -25l122 -60q61 -30 127 -24t123 74v-174z" />
<glyph unicode="&#xc4;" horiz-adv-x="1503" d="M918 1366l542 -1366h-379l-106 328h-447l-106 -328h-379l543 1366h332zM612 588h277l-137 424zM455 1483v223h245v-223h-245zM803 1483v223h246v-223h-246z" />
<glyph unicode="&#xc5;" horiz-adv-x="1503" d="M918 1366l542 -1366h-379l-106 328h-447l-106 -328h-379l543 1366h332zM612 588h277l-137 424zM752 1794q86 0 132 -46t46 -130t-46 -130t-132 -46q-84 0 -131.5 46t-47.5 130t47.5 130t131.5 46zM751.5 1554q28.5 0 40 13.5t11.5 50.5q0 63 -51.5 63t-51.5 -63 q0 -37 11.5 -50.5t40 -13.5z" />
<glyph unicode="&#xc6;" horiz-adv-x="2217" d="M1012 1366h1065v-287h-600v-252h520v-288h-520v-250h600v-289h-953v246h-469l-168 -246h-436zM831 504h293v428z" />
<glyph unicode="&#xc7;" horiz-adv-x="1314" d="M786 1079q-141 0 -225 -86t-84 -309t84 -309t225 -86q213 0 418 98v-305q-195 -78 -356 -92l-125 -240h-240l189 240q-109 10 -200 48t-173 112.5t-128 211t-46 322.5q0 207 57.5 351.5t155.5 216t201.5 101t226.5 29.5q197 0 438 -96v-305q-205 98 -418 98z" />
<glyph unicode="&#xc8;" horiz-adv-x="1247" d="M1130 1079h-600v-252h521v-288h-521v-250h600v-289h-952v1366h952v-287zM664 1722l127 -239h-177l-190 239h240z" />
<glyph unicode="&#xc9;" horiz-adv-x="1247" d="M1130 1079h-600v-252h521v-288h-521v-250h600v-289h-952v1366h952v-287zM561 1483l127 239h240l-191 -239h-176z" />
<glyph unicode="&#xca;" horiz-adv-x="1247" d="M1130 1079h-600v-252h521v-288h-521v-250h600v-289h-952v1366h952v-287zM719 1733l246 -250h-209l-86 90l-86 -90h-209l246 250h98z" />
<glyph unicode="&#xcb;" horiz-adv-x="1247" d="M1130 1079h-600v-252h521v-288h-521v-250h600v-289h-952v1366h952v-287zM383 1483v223h246v-223h-246zM731 1483v223h246v-223h-246z" />
<glyph unicode="&#xcc;" horiz-adv-x="708" d="M180 0h352v1366h-352v-1366zM315 1722l127 -239h-176l-190 239h239z" />
<glyph unicode="&#xcd;" horiz-adv-x="708" d="M180 0h352v1366h-352v-1366zM270 1483l127 239h240l-191 -239h-176z" />
<glyph unicode="&#xce;" horiz-adv-x="708" d="M180 0h352v1366h-352v-1366zM406 1733l245 -250h-209l-86 90l-86 -90h-209l246 250h99z" />
<glyph unicode="&#xcf;" horiz-adv-x="708" d="M180 0h352v1366h-352v-1366zM59 1483v223h246v-223h-246zM408 1483v223h245v-223h-245z" />
<glyph unicode="&#xd0;" horiz-adv-x="1527" d="M764 1366q317 0 483 -174t166 -510q0 -334 -166 -508t-483 -174h-492v582h-166v200h166v584h492zM764 289q297 0 297 393q0 397 -297 397h-139v-297h217v-200h-217v-293h139z" />
<glyph unicode="&#xd1;" horiz-adv-x="1619" d="M1085 1366h353v-1366h-348l-560 813v-813h-352v1366h352l555 -819v819zM1133 1536q-57 -68 -123 -74t-127 24l-122 60q-60 31 -127 25t-124 -74v174q57 68 123.5 74t127.5 -25l122 -60q61 -30 126.5 -24t123.5 74v-174z" />
<glyph unicode="&#xd2;" horiz-adv-x="1538" d="M766 1380q96 0 180 -16t171 -63.5t149.5 -122t101.5 -201.5t39 -293t-39 -293t-101.5 -201.5t-149.5 -122t-171 -63.5t-180 -16t-180 16t-171 63.5t-149.5 122t-101.5 201.5t-39 293t39 293t101.5 201.5t149.5 122t171 63.5t180 16zM766 289q131 0 210 86t79 309t-79 309 t-210 86t-210 -86t-79 -309t79 -309t210 -86zM739 1722l127 -239h-176l-190 239h239z" />
<glyph unicode="&#xd3;" horiz-adv-x="1538" d="M766 1380q96 0 180 -16t171 -63.5t149.5 -122t101.5 -201.5t39 -293t-39 -293t-101.5 -201.5t-149.5 -122t-171 -63.5t-180 -16t-180 16t-171 63.5t-149.5 122t-101.5 201.5t-39 293t39 293t101.5 201.5t149.5 122t171 63.5t180 16zM766 289q131 0 210 86t79 309t-79 309 t-210 86t-210 -86t-79 -309t79 -309t210 -86zM666 1483l127 239h239l-190 -239h-176z" />
<glyph unicode="&#xd4;" horiz-adv-x="1538" d="M766 1380q96 0 180 -16t171 -63.5t149.5 -122t101.5 -201.5t39 -293t-39 -293t-101.5 -201.5t-149.5 -122t-171 -63.5t-180 -16t-180 16t-171 63.5t-149.5 122t-101.5 201.5t-39 293t39 293t101.5 201.5t149.5 122t171 63.5t180 16zM766 289q131 0 210 86t79 309t-79 309 t-210 86t-210 -86t-79 -309t79 -309t210 -86zM815 1733l246 -250h-209l-86 90l-86 -90h-209l246 250h98z" />
<glyph unicode="&#xd5;" horiz-adv-x="1538" d="M766 1380q96 0 180 -16t171 -63.5t149.5 -122t101.5 -201.5t39 -293t-39 -293t-101.5 -201.5t-149.5 -122t-171 -63.5t-180 -16t-180 16t-171 63.5t-149.5 122t-101.5 201.5t-39 293t39 293t101.5 201.5t149.5 122t171 63.5t180 16zM766 289q131 0 210 86t79 309t-79 309 t-210 86t-210 -86t-79 -309t79 -309t210 -86zM1081 1536q-57 -68 -122.5 -74t-127.5 24l-121 60q-60 31 -127 25t-124 -74v174q57 68 123.5 74t127.5 -25l121 -60q61 -30 127 -24t123 74v-174z" />
<glyph unicode="&#xd6;" horiz-adv-x="1538" d="M766 1380q96 0 180 -16t171 -63.5t149.5 -122t101.5 -201.5t39 -293t-39 -293t-101.5 -201.5t-149.5 -122t-171 -63.5t-180 -16t-180 16t-171 63.5t-149.5 122t-101.5 201.5t-39 293t39 293t101.5 201.5t149.5 122t171 63.5t180 16zM766 289q131 0 210 86t79 309t-79 309 t-210 86t-210 -86t-79 -309t79 -309t210 -86zM469 1483v223h246v-223h-246zM817 1483v223h246v-223h-246z" />
<glyph unicode="&#xd7;" horiz-adv-x="1093" d="M948 895l-284 -371l284 -370h-223l-176 223l-174 -223h-228l287 370l-284 371h225l174 -223l176 223h223z" />
<glyph unicode="&#xd8;" horiz-adv-x="1529" d="M1516 1366l-211 -246q102 -168 102 -438q0 -166 -39 -293t-101.5 -201.5t-149.5 -122t-171 -63.5t-180 -16q-217 0 -363 86l-61 -72h-328l211 246q-100 168 -100 436q0 166 39 293t101.5 201.5t149.5 122t171 63.5t180 16q215 0 360 -84l62 72h328zM477 682q0 -82 8 -133 l426 495q-57 33 -145 33q-131 0 -210 -86t-79 -309zM1055 682q0 70 -11 135l-426 -498q57 -33 148 -32q131 0 210 86t79 309z" />
<glyph unicode="&#xd9;" horiz-adv-x="1533" d="M993 1366h353v-778q0 -287 -154 -444.5t-430.5 -157.5t-430 157.5t-153.5 444.5v778h352v-819q0 -131 56.5 -194.5t175.5 -63.5t175 63.5t56 194.5v819zM745 1722l127 -239h-176l-190 239h239z" />
<glyph unicode="&#xda;" horiz-adv-x="1533" d="M993 1366h353v-778q0 -287 -154 -444.5t-430.5 -157.5t-430 157.5t-153.5 444.5v778h352v-819q0 -131 56.5 -194.5t175.5 -63.5t175 63.5t56 194.5v819zM651 1483l127 239h240l-191 -239h-176z" />
<glyph unicode="&#xdb;" horiz-adv-x="1533" d="M993 1366h353v-778q0 -287 -154 -444.5t-430.5 -157.5t-430 157.5t-153.5 444.5v778h352v-819q0 -131 56.5 -194.5t175.5 -63.5t175 63.5t56 194.5v819zM811 1733l246 -250h-209l-86 90l-86 -90h-209l246 250h98z" />
<glyph unicode="&#xdc;" horiz-adv-x="1533" d="M993 1366h353v-778q0 -287 -154 -444.5t-430.5 -157.5t-430 157.5t-153.5 444.5v778h352v-819q0 -131 56.5 -194.5t175.5 -63.5t175 63.5t56 194.5v819zM465 1483v223h246v-223h-246zM813 1483v223h246v-223h-246z" />
<glyph unicode="&#xdd;" horiz-adv-x="1492" d="M1034 1366h428l-542 -791v-575h-353v575l-542 791h428l290 -520zM635 1483l127 239h239l-190 -239h-176z" />
<glyph unicode="&#xde;" horiz-adv-x="1337" d="M705 1163q248 0 385 -126t137 -353q0 -229 -137.5 -355t-384.5 -126h-177v-203h-352v1366h352v-203h177zM672 494q106 0 155.5 56t49.5 134q0 76 -49.5 134.5t-155.5 58.5h-144v-383h144z" />
<glyph unicode="&#xdf;" horiz-adv-x="1282" d="M926 719q250 -74 250 -313q0 -221 -167 -318.5t-452 -85.5v256q131 -2 228.5 38t97.5 134q0 51 -32 84t-91.5 47t-100.5 19.5t-102 7.5v233q43 0 84 6.5t88 21.5t74.5 48t27.5 82q0 162 -167 162q-190 0 -191 -267v-874h-293v846q0 160 41 271.5t110.5 166.5t143.5 77.5 t162 22.5q236 0 357.5 -109.5t121.5 -266.5q0 -106 -60 -187.5t-130 -101.5z" />
<glyph unicode="&#xe0;" horiz-adv-x="1128" d="M543 1036q225 0 348 -114.5t123 -329.5v-242q0 -190 -102.5 -277t-366.5 -87q-438 0 -439 315q0 31 7.5 63.5t35 78.5t72.5 81t134 59.5t208 24.5q63 0 92 -2q0 84 -41 120t-96 36q-154 0 -311 -64v267q178 71 336 71zM662 375v86q-49 4 -68 4q-135 0 -135 -103 q0 -109 100 -108q49 0 76 39t27 82zM565 1378l127 -239h-176l-190 239h239z" />
<glyph unicode="&#xe1;" horiz-adv-x="1128" d="M543 1036q225 0 348 -114.5t123 -329.5v-242q0 -190 -102.5 -277t-366.5 -87q-438 0 -439 315q0 31 7.5 63.5t35 78.5t72.5 81t134 59.5t208 24.5q63 0 92 -2q0 84 -41 120t-96 36q-154 0 -311 -64v267q178 71 336 71zM662 375v86q-49 4 -68 4q-135 0 -135 -103 q0 -109 100 -108q49 0 76 39t27 82zM442 1139l127 239h240l-191 -239h-176z" />
<glyph unicode="&#xe2;" horiz-adv-x="1128" d="M543 1036q225 0 348 -114.5t123 -329.5v-242q0 -190 -102.5 -277t-366.5 -87q-438 0 -439 315q0 31 7.5 63.5t35 78.5t72.5 81t134 59.5t208 24.5q63 0 92 -2q0 84 -41 120t-96 36q-154 0 -311 -64v267q178 71 336 71zM662 375v86q-49 4 -68 4q-135 0 -135 -103 q0 -109 100 -108q49 0 76 39t27 82zM612 1389l246 -250h-209l-86 90l-86 -90h-209l246 250h98z" />
<glyph unicode="&#xe3;" horiz-adv-x="1128" d="M543 1036q225 0 348 -114.5t123 -329.5v-242q0 -190 -102.5 -277t-366.5 -87q-438 0 -439 315q0 31 7.5 63.5t35 78.5t72.5 81t134 59.5t208 24.5q63 0 92 -2q0 84 -41 120t-96 36q-154 0 -311 -64v267q178 71 336 71zM662 375v86q-49 4 -68 4q-135 0 -135 -103 q0 -109 100 -108q49 0 76 39t27 82zM874 1192q-57 -68 -122.5 -74t-126.5 24l-122 60q-60 31 -127 25t-124 -74v174q57 68 123.5 74t127.5 -25l122 -60q61 -30 126.5 -24t122.5 74v-174z" />
<glyph unicode="&#xe4;" horiz-adv-x="1128" d="M543 1036q225 0 348 -114.5t123 -329.5v-242q0 -190 -102.5 -277t-366.5 -87q-438 0 -439 315q0 31 7.5 63.5t35 78.5t72.5 81t134 59.5t208 24.5q63 0 92 -2q0 84 -41 120t-96 36q-154 0 -311 -64v267q178 71 336 71zM662 375v86q-49 4 -68 4q-135 0 -135 -103 q0 -109 100 -108q49 0 76 39t27 82zM266 1139v223h246v-223h-246zM614 1139v223h246v-223h-246z" />
<glyph unicode="&#xe5;" horiz-adv-x="1128" d="M543 1036q225 0 348 -114.5t123 -329.5v-242q0 -190 -102.5 -277t-366.5 -87q-438 0 -439 315q0 31 7.5 63.5t35 78.5t72.5 81t134 59.5t208 24.5q63 0 92 -2q0 84 -41 120t-96 36q-154 0 -311 -64v267q178 71 336 71zM662 375v86q-49 4 -68 4q-135 0 -135 -103 q0 -109 100 -108q49 0 76 39t27 82zM563 1448q86 0 132 -46t46 -130t-46 -130t-132 -46q-84 0 -131 46t-47 130t47 130t131 46zM563.5 1208q28.5 0 39.5 13.5t11 50.5q0 63 -51 63t-51 -63q0 -37 11.5 -50.5t40 -13.5z" />
<glyph unicode="&#xe6;" horiz-adv-x="1792" d="M1610 537q0 -61 -6 -111h-582q0 -72 67.5 -121t151.5 -49q188 0 322 80v-248q-166 -106 -389 -106q-96 0 -175 48t-112 109q-90 -158 -322 -157q-438 0 -438 315q0 31 7 63.5t35 78.5t73 81t134 59.5t208 24.5q63 0 92 -2q0 84 -41 120t-96 36q-154 0 -312 -64v267 q178 72 336 71q92 0 175 -44t124 -91q35 51 113 94t170 43q229 0 347 -144t118 -353zM682 371v86q-49 4 -68 4q-135 0 -135 -103q0 -109 101 -108q49 0 75.5 39t26.5 82zM1030 637h230q-4 59 -35 116.5t-80 57.5t-80 -53t-35 -121z" />
<glyph unicode="&#xe7;" horiz-adv-x="993" d="M670 768q-90 0 -144.5 -64.5t-54.5 -193.5t54.5 -193.5t144.5 -64.5q119 0 258 63v-262q-106 -51 -238 -63l-125 -240h-239l188 240q-193 25 -294 158t-101 362q0 254 126 390t361 136q178 0 322 -69v-262q-139 63 -258 63z" />
<glyph unicode="&#xe8;" d="M1065 541q0 -61 -6 -111h-582q0 -72 67.5 -121t151.5 -49q188 0 322 80v-248q-166 -106 -402 -106q-68 0 -129 11t-128.5 46t-115.5 89t-80 149.5t-32 220.5q0 244 113.5 390t355.5 146q229 0 347 -144t118 -353zM485 641h230q-4 59 -35 116.5t-80 57.5t-80 -53t-35 -121 zM578 1393l127 -240h-177l-190 240h240z" />
<glyph unicode="&#xe9;" d="M1065 541q0 -61 -6 -111h-582q0 -72 67.5 -121t151.5 -49q188 0 322 80v-248q-166 -106 -402 -106q-68 0 -129 11t-128.5 46t-115.5 89t-80 149.5t-32 220.5q0 244 113.5 390t355.5 146q229 0 347 -144t118 -353zM485 641h230q-4 59 -35 116.5t-80 57.5t-80 -53t-35 -121 zM475 1139l127 239h240l-191 -239h-176z" />
<glyph unicode="&#xea;" d="M1065 541q0 -61 -6 -111h-582q0 -72 67.5 -121t151.5 -49q188 0 322 80v-248q-166 -106 -402 -106q-68 0 -129 11t-128.5 46t-115.5 89t-80 149.5t-32 220.5q0 244 113.5 390t355.5 146q229 0 347 -144t118 -353zM485 641h230q-4 59 -35 116.5t-80 57.5t-80 -53t-35 -121 zM645 1389l246 -250h-209l-86 90l-86 -90h-209l246 250h98z" />
<glyph unicode="&#xeb;" d="M1065 541q0 -61 -6 -111h-582q0 -72 67.5 -121t151.5 -49q188 0 322 80v-248q-166 -106 -402 -106q-68 0 -129 11t-128.5 46t-115.5 89t-80 149.5t-32 220.5q0 244 113.5 390t355.5 146q229 0 347 -144t118 -353zM485 641h230q-4 59 -35 116.5t-80 57.5t-80 -53t-35 -121 zM299 1139v223h246v-223h-246zM647 1139v223h246v-223h-246z" />
<glyph unicode="&#xec;" horiz-adv-x="735" d="M197 0h352v1022h-352v-1022zM332 1393l127 -240h-176l-191 240h240z" />
<glyph unicode="&#xed;" horiz-adv-x="735" d="M197 0h352v1022h-352v-1022zM287 1139l127 239h239l-190 -239h-176z" />
<glyph unicode="&#xee;" horiz-adv-x="735" d="M197 0h352v1022h-352v-1022zM422 1389l246 -250h-209l-86 90l-86 -90h-209l246 250h98z" />
<glyph unicode="&#xef;" horiz-adv-x="735" d="M197 0h352v1022h-352v-1022zM76 1139v223h246v-223h-246zM424 1139v223h246v-223h-246z" />
<glyph unicode="&#xf0;" horiz-adv-x="1271" d="M911 1239q215 -193 215 -606q0 -649 -505 -649q-131 0 -232.5 45t-159 118.5t-85 158.5t-27.5 175q0 131 41 220.5t115.5 129t148.5 55t170 15.5q123 0 190 -27q-14 109 -123 164l-151 -118l-92 114l61 49h-16q-90 0 -199 -30v301q94 31 227 30q162 0 291 -59l107 84 l92 -117zM621 287q66 0 112.5 95t42.5 275q-53 23 -151 23q-78 0 -116 -59.5t-38 -137.5q0 -31 7 -68.5t44.5 -82.5t98.5 -45z" />
<glyph unicode="&#xf1;" horiz-adv-x="1308" d="M686 1036q217 0 344 -115.5t127 -318.5v-602h-352v657q0 31 -8.5 51.5t-48 41t-115.5 20.5q-55 0 -103 -12v-758h-352v913q246 123 508 123zM965 1192q-57 -68 -123 -74t-127 24l-122 60q-60 31 -127 25t-124 -74v174q57 68 123.5 74t127.5 -25l122 -60q61 -30 126.5 -24 t123.5 74v-174z" />
<glyph unicode="&#xf2;" d="M583.5 1034q235.5 0 363.5 -135t128 -389t-128 -389t-363.5 -135t-363.5 135t-128 389t128 389t363.5 135zM583.5 240q139.5 0 139.5 270t-139.5 270t-139.5 -270t139.5 -270zM571 1378l127 -239h-176l-190 239h239z" />
<glyph unicode="&#xf3;" d="M583.5 1034q235.5 0 363.5 -135t128 -389t-128 -389t-363.5 -135t-363.5 135t-128 389t128 389t363.5 135zM583.5 240q139.5 0 139.5 270t-139.5 270t-139.5 -270t139.5 -270zM469 1139l127 239h240l-191 -239h-176z" />
<glyph unicode="&#xf4;" d="M583.5 1034q235.5 0 363.5 -135t128 -389t-128 -389t-363.5 -135t-363.5 135t-128 389t128 389t363.5 135zM583.5 240q139.5 0 139.5 270t-139.5 270t-139.5 -270t139.5 -270zM633 1389l246 -250h-209l-86 90l-86 -90h-209l246 250h98z" />
<glyph unicode="&#xf5;" d="M583.5 1034q235.5 0 363.5 -135t128 -389t-128 -389t-363.5 -135t-363.5 135t-128 389t128 389t363.5 135zM583.5 240q139.5 0 139.5 270t-139.5 270t-139.5 -270t139.5 -270zM899 1192q-57 -68 -122.5 -74t-127.5 24l-122 60q-60 31 -126.5 25t-124.5 -74v174 q57 68 124 74t127 -25l122 -60q61 -30 127 -24t123 74v-174z" />
<glyph unicode="&#xf6;" d="M583.5 1034q235.5 0 363.5 -135t128 -389t-128 -389t-363.5 -135t-363.5 135t-128 389t128 389t363.5 135zM583.5 240q139.5 0 139.5 270t-139.5 270t-139.5 -270t139.5 -270zM287 1139v223h245v-223h-245zM635 1139v223h246v-223h-246z" />
<glyph unicode="&#xf7;" horiz-adv-x="1286" d="M188 649h916v-231h-916v231zM520 47v240h252v-240h-252zM772 1022v-240h-252v240h252z" />
<glyph unicode="&#xf8;" horiz-adv-x="1255" d="M1229 1022l-178 -207q66 -121 65 -303q0 -254 -128 -389t-363 -135q-139 0 -244 49l-31 -37h-327l178 209q-68 119 -68 303q0 254 128 389t364 135q141 0 243 -49l31 35h330zM625 782q-131 0 -138 -241l193 227q-28 14 -55 14zM625 242q131 0 139 239l-195 -225 q23 -14 56 -14z" />
<glyph unicode="&#xf9;" horiz-adv-x="1269" d="M770 1022h352v-561q0 -475 -475 -475t-475 475v561h352v-623q0 -150 123 -149.5t123 149.5v623zM631 1378l127 -239h-176l-191 239h240z" />
<glyph unicode="&#xfa;" horiz-adv-x="1269" d="M770 1022h352v-561q0 -475 -475 -475t-475 475v561h352v-623q0 -150 123 -149.5t123 149.5v623zM537 1139l127 239h239l-190 -239h-176z" />
<glyph unicode="&#xfb;" horiz-adv-x="1269" d="M770 1022h352v-561q0 -475 -475 -475t-475 475v561h352v-623q0 -150 123 -149.5t123 149.5v623zM696 1389l246 -250h-209l-86 90l-86 -90h-209l246 250h98z" />
<glyph unicode="&#xfc;" horiz-adv-x="1269" d="M770 1022h352v-561q0 -475 -475 -475t-475 475v561h352v-623q0 -150 123 -149.5t123 149.5v623zM350 1139v223h246v-223h-246zM698 1139v223h246v-223h-246z" />
<glyph unicode="&#xfd;" horiz-adv-x="1169" d="M729 1022h371l-373 -1002q-90 -231 -177 -327t-212 -96q-133 0 -223 43v256q70 -25 135 -25q47 0 92 56.5t78 170.5l-357 924h373l148 -588zM485 1139l127 239h240l-190 -239h-177z" />
<glyph unicode="&#xfe;" horiz-adv-x="1218" d="M655 1030q223 0 344 -133t121 -383t-120.5 -383t-344.5 -133q-90 0 -133 6v-379h-350v1778h350v-379q43 6 133 6zM590 217q178 12 178 297t-178 297q-18 0 -68 -4v-586q50 -4 68 -4z" />
<glyph unicode="&#xff;" horiz-adv-x="1169" d="M729 1022h371l-373 -1002q-90 -231 -177 -327t-212 -96q-133 0 -223 43v256q70 -25 135 -25q47 0 92 56.5t78 170.5l-357 924h373l148 -588zM287 1139v223h245v-223h-245zM635 1139v223h246v-223h-246z" />
<glyph unicode="&#x152;" horiz-adv-x="2160" d="M2009 1079h-600v-252h520v-288h-520v-250h600v-289h-952v39q-125 -51 -293 -51q-96 0 -180 16t-171 63.5t-149.5 122t-101.5 201.5t-39 293t39 293t101.5 201.5t149.5 122t171 63.5t180 16q168 0 293 -51v37h952v-287zM764 289q131 0 210 86t79 309t-79 309t-210 86 t-210 -86t-79 -309t79 -309t210 -86z" />
<glyph unicode="&#x153;" horiz-adv-x="1853" d="M1686 541q0 -61 -7 -111h-581q0 -72 67.5 -121t151.5 -49q188 0 321 80v-248q-166 -106 -401 -106q-193 0 -311 88q-119 -86 -310 -86q-236 0 -363.5 135t-127.5 389t128 389t363 135q190 0 308 -86q117 88 297 88q229 0 347 -144t118 -353zM616.5 242q139.5 0 139.5 270 t-139.5 270t-139.5 -270t139.5 -270zM1106 641h229q-4 59 -34.5 116.5t-80 57.5t-80 -53t-34.5 -121z" />
<glyph unicode="&#x178;" horiz-adv-x="1492" d="M1034 1366h428l-542 -791v-575h-353v575l-542 791h428l290 -520zM449 1483v223h245v-223h-245zM797 1483v223h245v-223h-245z" />
<glyph unicode="&#x2c6;" horiz-adv-x="874" d="M481 1405l246 -250h-209l-86 90l-86 -90h-209l246 250h98z" />
<glyph unicode="&#x2dc;" horiz-adv-x="1058" d="M838 1192q-57 -68 -123 -74t-127 24l-122 60q-60 31 -127 25t-124 -74v174q57 68 124 74t127 -25l122 -60q61 -30 126.5 -24t123.5 74v-174z" />
<glyph unicode="&#x2000;" horiz-adv-x="897" />
<glyph unicode="&#x2001;" horiz-adv-x="1794" />
<glyph unicode="&#x2002;" horiz-adv-x="897" />
<glyph unicode="&#x2003;" horiz-adv-x="1794" />
<glyph unicode="&#x2004;" horiz-adv-x="598" />
<glyph unicode="&#x2005;" horiz-adv-x="448" />
<glyph unicode="&#x2006;" horiz-adv-x="299" />
<glyph unicode="&#x2007;" horiz-adv-x="299" />
<glyph unicode="&#x2008;" horiz-adv-x="223" />
<glyph unicode="&#x2009;" horiz-adv-x="358" />
<glyph unicode="&#x200a;" horiz-adv-x="98" />
<glyph unicode="&#x2010;" horiz-adv-x="950" d="M162 754h624v-240h-624v240z" />
<glyph unicode="&#x2011;" horiz-adv-x="950" d="M162 754h624v-240h-624v240z" />
<glyph unicode="&#x2012;" horiz-adv-x="950" d="M162 754h624v-240h-624v240z" />
<glyph unicode="&#x2013;" horiz-adv-x="1146" d="M141 715h860v-240h-860v240z" />
<glyph unicode="&#x2014;" horiz-adv-x="1824" d="M162 715h1501v-240h-1501v240z" />
<glyph unicode="&#x2018;" horiz-adv-x="616" d="M96 1384h285l151 -401h-239z" />
<glyph unicode="&#x2019;" horiz-adv-x="616" d="M248 1384h284l-196 -401h-240z" />
<glyph unicode="&#x201a;" horiz-adv-x="698" d="M299 172h285l-197 -401h-240z" />
<glyph unicode="&#x201c;" horiz-adv-x="980" d="M98 1384h285l152 -401h-240zM455 1384h284l152 -401h-240z" />
<glyph unicode="&#x201d;" horiz-adv-x="980" d="M606 1384h285l-197 -401h-239zM250 1384h285l-197 -401h-240z" />
<glyph unicode="&#x201e;" horiz-adv-x="1056" d="M655 172h285l-197 -401h-239zM299 172h285l-197 -401h-240z" />
<glyph unicode="&#x2022;" horiz-adv-x="1085" d="M913 665.5q0 -155.5 -107.5 -263t-261 -107.5t-263 108.5t-109.5 262t109.5 262t263 108.5t261 -107.5t107.5 -263z" />
<glyph unicode="&#x2026;" horiz-adv-x="1849" d="M1343 283h295v-283h-295v283zM219 0v283h295v-283h-295zM780 0v283h295v-283h-295z" />
<glyph unicode="&#x202f;" horiz-adv-x="358" />
<glyph unicode="&#x2039;" horiz-adv-x="819" d="M748 911l-373 -389l373 -391h-338l-347 391l347 389h338z" />
<glyph unicode="&#x203a;" horiz-adv-x="843" d="M453 522l-373 389h338l346 -389l-346 -391h-338z" />
<glyph unicode="&#x205f;" horiz-adv-x="448" />
<glyph unicode="&#x20ac;" horiz-adv-x="1466" d="M924 1079q-174 0 -248 -116h397v-191h-455q-4 -53 -4 -88q0 -33 4 -86h455v-190h-397q74 -119 248 -119q213 0 417 98v-305q-240 -96 -438 -96q-492 0 -608 422h-197v190h166q-2 27 -2 86t2 88h-166v191h197q117 420 608 419q199 0 438 -96v-305q-204 98 -417 98z" />
<glyph unicode="&#x2122;" horiz-adv-x="1581" d="M100 1366h572v-160h-199v-522h-176v522h-197v160zM1266 1366h174v-682h-176v422l-158 -227l-158 227v-422h-176v682h174l160 -233z" />
<glyph unicode="&#xe000;" horiz-adv-x="1020" d="M0 1020h1020v-1020h-1020v1020z" />
<glyph unicode="&#xfb01;" horiz-adv-x="1462" d="M633 1446q84 0 151 -23v-211q-29 8 -55 9q-72 0 -109.5 -63.5t-37.5 -135.5h202v-248h-206v-774h-353v774h-141v248h145q1 424 404 424zM985 0h352v1022h-352v-1022zM981 1139h360v268h-360v-268z" />
<glyph unicode="&#xfb02;" horiz-adv-x="1462" d="M631 1446q84 0 151 -23v-211q-29 8 -55 9q-72 0 -109.5 -63.5t-37.5 -135.5h202v-248h-207v-774h-352v774h-141v248h145q1 424 404 424zM983 0h352v1411h-352v-1411z" />
<glyph unicode="&#xfb03;" horiz-adv-x="2287" d="M2101 0h-352v1022h352v-1022zM2105 1139h-360v268h360v-268zM1407 1446q84 0 151 -23v-211q-29 8 -55 9q-72 0 -109.5 -63.5t-37.5 -135.5h202v-248h-207v-774h-352v774h-141v248h145q1 424 404 424zM631 1446q84 0 151 -23v-211q-29 8 -55 9q-72 0 -109.5 -63.5 t-37.5 -135.5h202v-248h-207v-774h-352v774h-141v248h145q1 424 404 424z" />
<glyph unicode="&#xfb04;" horiz-adv-x="2314" d="M2111 0h-352v1411h352v-1411zM1407 1446q84 0 151 -23v-211q-29 8 -55 9q-72 0 -109.5 -63.5t-37.5 -135.5h202v-248h-207v-774h-352v774h-141v248h145q1 424 404 424zM631 1446q84 0 151 -23v-211q-29 8 -55 9q-72 0 -109.5 -63.5t-37.5 -135.5h202v-248h-207v-774h-352 v774h-141v248h145q1 424 404 424z" />
</font>
</defs>
</svg>
