<?xml version="1.0" standalone="no"?>
<!DOCTYPE svg PUBLIC "-//W3C//DTD SVG 1.1//EN" "http://www.w3.org/Graphics/SVG/1.1/DTD/svg11.dtd" >
<svg xmlns="http://www.w3.org/2000/svg">
<metadata></metadata>
<defs>
<font id="MostWaztedRegular" horiz-adv-x="844" >
<font-face units-per-em="2048" ascent="1638" descent="-410" />
<missing-glyph horiz-adv-x="799" />
<glyph horiz-adv-x="0" />
<glyph horiz-adv-x="2048" />
<glyph unicode="&#xd;" horiz-adv-x="508" />
<glyph unicode=" "  horiz-adv-x="799" />
<glyph unicode="&#x09;" horiz-adv-x="799" />
<glyph unicode="&#xa0;" horiz-adv-x="799" />
<glyph unicode="!" horiz-adv-x="393" d="M-37 227q30 122 105 104l45 4q111 -7 80 -107q-19 -124 -210 -118q-72 13 -20 117zM9 476v7q108 407 108 601l28 290l-7 161v42l14 14q34 -19 175 -28l34 -224v-143q-21 -347 -209 -693q0 -15 -143 -27z" />
<glyph unicode="&#x22;" horiz-adv-x="629" d="M-369 1340q102 102 219 88q199 -20 642 -310q154 -126 228 -272l-2 -19q-3 -26 -171 -46q-70 76 -90 116q-276 240 -404 272q-245 125 -412 143zM-263 1028v7q52 56 136 83l90 -9q164 -18 337 -184q-2 -27 11 -29q-36 -108 -81 -103q-101 66 -493 235z" />
<glyph unicode="#" horiz-adv-x="1349" d="M-8 175q39 54 83.5 129.5t70.5 154.5h-1l-36 -3l-14 1l-5 8l-52 -3l-42 16q-18 43 30 124q75 -25 157 -25h27q39 77 89 208q-65 -3 -124 -4l-2 6q4 130 71 193l13 3l9 -4q7 -26 88 -34q36 119 73 259q29 43 234 48l-99 -308q37 2 79 5l208 25q9 38 18 79l18 166l-4 36 l37 10q67 -13 178 18l-43 -289l39 6q5 -111 -16 -117l-43 -6q-18 -103 -64 -214q10 2 21 5v-6l286 85l7 -8l-1 -6q-61 -141 -106 -136q-123 -46 -273 -75q-5 -11 -10.5 -21.5t-6.5 -21.5l-95 -186l17 -30l-10 -20l-81 16q-96 -5 -233 -24l59 72q48 69 92 162 q-35 -4 -65.5 -5t-50.5 -5l-150 -7q-48 -101 -138 -226q-35 -35 -239 -51zM440 598l105 7q92 7 177 18q49 93 87 210l-181 -24q-61 -6 -119 -11q-1 -31 -43 -126q-10 -35 -26 -74zM1125 1010l111 14l3 -13l7 -90l-49 -4l-61 -17l-9 6zM1276 1035l49 7l27 6q20 -93 -46 -110 l-20 -6l-4 15z" />
<glyph unicode="$" horiz-adv-x="1676" d="M-190 283l8 69l18 39q23 71 102 165q11 43 212 226q-12 27 -27 57l-22 76q-42 174 -55 262l44 10l6 2l10 -7q127 0 157 24l1 -6l9 -7l3 -59l11 -41l6 -42l10 -35q15 -43 27 -76q268 231 290 229l254 15l-2 -22q-68 -10 -452 -293q-311 -258 -398 -379l-1 -14 q4 -21 38 -25q135 -14 298 31l6 -7l7 -1q774 155 1087 198l237 -4l35 -3l102 -25q105 -63 108 -173q-20 -114 -299 -348l32 -64q142 -246 211 -313l2 -6l-80 5q-151 -9 -164 39q-85 110 -155 216q-114 -87 -256 -188q-194 -102 -214 -167l-211 58l2 13l-3 43 q100 211 117 365q11 107 -53 217l-82 29v-6l-20 9l2 20q1 11 223 60q112 -42 160 -143q18 -91 6.5 -196.5t-88.5 -236.5q125 68 301 249q309 292 347 425q-7 28 -61 34l-34 4l-43 -2l-5 7l-7 1q-457 -42 -826 -128q-679 -243 -844 -226q-60 7 -79 44zM657 723l1 14 q106 91 214 299l8 7q51 119 78 145l239 9l-148 -277l-110 -177l-277 -27z" />
<glyph unicode="%" horiz-adv-x="1095" d="M18 1139q-3 128 130 256l11 3q162 5 165 -3q4 -11 -65 -59q-65 -84 -88 -205l6 1l4 -28l7 -22q8 -16 52 -29q79 18 53 94l-64 82q-12 37 67 107l5 3q92 -43 118 -118q20 -56 16 -97q-21 -165 -131 -203q-62 -21 -153 3l-5 -2l-106 115l-13 56l-6 -1zM260 250 q-3 109 35 241l4 42l8 6l3 7l3 36l15 26l-6 1l12 21q100 337 404 727q13 48 164 39l80 5l-2 -6q-69 -67 -211 -313l-65 -128q-69 -139 -203 -522l1 -21l-9 -6l-2 -8l-6 -42l-9 -5l-2 -36l-11 -62l-9 -7l-1 -6q-30 24 -133 6l-9 -7zM653 482q-3 128 130 256l11 3 q162 5 165 -3q4 -11 -65 -59q-65 -84 -88 -205l6 1l4 -28l7 -22q8 -16 52 -29q79 18 53 94l-64 82q-12 37 67 107l5 3q92 -43 118 -118q20 -56 16 -97q-21 -165 -131 -203q-62 -21 -153 3l-5 -2l-106 115l-13 56l-6 -1z" />
<glyph unicode="&#x26;" horiz-adv-x="781" d="M-70 477l6 5q0 42 54.5 79.5t227.5 81.5q-243 21 -252 97q21 74 110 126q236 154 460 255q-17 73 8 231l209 32l6 -7l-2 -22l-14 -61l5 -21l-7 -6q-9 -74 4 -154l3 -30q-464 -231 -455 -316q40 -37 235 -37l117 -3q20 4 40 7v-3l5 -1l-5 -113h-1v-15q-80 -2 -184 -30 q-171 -37 -283 -113q-28 -19 20 -50l8 -12q106 -59 469 -182q276 -84 374 -103v-18l-231 -18q-97 -9 -378 67q-329 103 -365 142q-99 54 -125 100l-34 25z" />
<glyph unicode="'" horiz-adv-x="629" d="M-369 1340q102 102 219 88q199 -20 642 -310q154 -126 228 -272l-2 -19q-3 -26 -171 -46q-70 76 -90 116q-276 240 -404 272q-245 125 -412 143z" />
<glyph unicode="(" horiz-adv-x="526" d="M4 670l7 8l-1 7q-9 147 22 308q18 167 126 327l23 34l-2 10l10 1q135 203 446 305l24 -18l21 -98q38 -63 2 -68q-210 -104 -322 -249q-60 -139 -91 -206l-37 -164q-11 -71 -11 -131l8 -5l-6 -22q10 -161 30 -232l37 -101q15 -67 88 -202l16 -21q93 -121 303 -225l42 -20 l-14 -23q-325 13 -416 59l-101 99l-4 6l-10 1l2 10l-23 34q-81 132 -118 266q-42 115 -38 263l-5 41z" />
<glyph unicode=")" horiz-adv-x="526" d="M-226 -98l42 20q210 104 303 225l16 21q73 135 89 202l36 101q21 71 30 232l-5 22l7 5q1 60 -11 131l-37 164q-31 67 -91 206q-112 145 -322 249q-36 5 2 68l21 98l25 18q309 -101 445 -305l11 -1l-2 -10l22 -34q109 -160 126 -327q31 -161 22 -308l-1 -7l7 -8l-8 -6 l-4 -41q3 -148 -39 -263q-37 -134 -118 -266l-23 -34l2 -10l-10 -1l-4 -6l-101 -99q-91 -46 -416 -59z" />
<glyph unicode="*" horiz-adv-x="790" d="M41 1436q140 17 235 55q6 88 -4 198q6 13 34 25q32 -6 64.5 -14.5t52.5 -19t24 -38.5q-1 -67 6 -104q118 35 162 76q5 2 21 -17.5t52 -38t38 -29.5q0 -1 -3 -4q-99 -69 -231 -108q98 -169 228 -299q4 -4 -3 -6q-3 0 -7 1q-98 0 -140 20t-48 26q-34 38 -117 170 q-23 -130 -77 -236q-5 -10 -78 16t-68 36q59 110 77 229q-30 -5 -73.5 -12.5t-54.5 -4.5q-68 30 -86 67q-18 9 -4 12z" />
<glyph unicode="+" horiz-adv-x="954" d="M89 660q18 60 89 53q76 -3 111.5 -3t71.5 1q-5 37 -10 77l8 162q-6 39 15 73l191 20l4 -20l-33 -55l-10 -141q7 -55 12 -106q10 0 20 1h5q170 24 296 53l-17 -153q-54 -24 -253 -30q-25 1 -43 -4q8 -230 -41 -364l-129 7q23 103 -2 357l-152 1l-32 -3l-12 1l-4 8l-46 -3 l-36 16z" />
<glyph unicode="," horiz-adv-x="523" d="M-60 257v7q52 56 136 83l90 -9q164 -18 337 -184q-2 -27 11 -29q-36 -108 -81 -103q-101 66 -493 235z" />
<glyph unicode="-" horiz-adv-x="954" d="M89 660q18 60 89 53q76 -3 140.5 -3.5t239.5 12.5h5q170 24 296 53l-17 -153q-54 -24 -168.5 -26.5t-134.5 -9.5l-317 3l-32 -3l-12 1l-4 8l-46 -3l-36 16z" />
<glyph unicode="." horiz-adv-x="451" d="M90 227q30 122 105 104l45 4q111 -7 80 -107q-19 -124 -210 -118q-72 13 -20 117z" />
<glyph unicode="/" horiz-adv-x="702" d="M4 253q-3 109 35 241l4 42l8 6l3 7l3 36l15 26l-7 1l13 21q100 337 404 727q13 48 164 39l80 5l-2 -6q-69 -67 -211 -313l-65 -128q-69 -139 -203 -522l1 -21l-9 -6l-2 -8l-6 -42l-9 -5l-2 -36l-11 -62l-9 -7l-1 -6q-30 24 -133 6l-10 -7l-6 2z" />
<glyph unicode="0" horiz-adv-x="738" d="M-3 637q0 248 339 436l-58 24q9 5 19 10l111 34h12q113 1 199 -41q75 -15 207 -64l-100 -18q79 -87 119 -234v-135q-15 -145 -144 -288q-102 -134 -374 -134h-11l-99 31q-220 109 -220 379zM215 552q14 -94 57.5 -125.5t139.5 -23.5t193 158h1q24 47 39 99v146 q-23 97 -100 135l-77 -27q-277 -169 -253 -362z" />
<glyph unicode="1" horiz-adv-x="596" d="M-11 881q158 80 332 299.5t266 256.5q89 -13 156 -73v-27q-285 -468 -321 -957l23 -204l-109 -7l-98 -27q-82 127 8 523q51 189 147 346q-184 -221 -297 -243z" />
<glyph unicode="2" horiz-adv-x="926" d="M10 282q-29 52 58 91q144 102 272 216l122 109q77 79 155 170l83 138q38 97 12 129q-14 29 -54 31q-255 -1 -493 -67q-53 19 -59 70l3 47l28 38q381 91 625 52q205 -49 208 -164q-2 -230 -402 -589q-99 -95 -219 -200l-13 -24q158 -18 414 1q3 42 -69 125l21 24l46 -1 q109 19 168 -20q112 -325 53 -325q-600 48 -901 1l-39 32q4 54 -19 116z" />
<glyph unicode="3" horiz-adv-x="832" d="M60 161l4 18q90 158 107 214q42 153 -71 181l-6 17q136 22 155 17q131 -59 92 -197l-12 -41q-9 -36 -17 -37l-1 -5q26 -6 160 90l136 95q40 47 53 98q-14 19 -30 23l-47 12q-143 31 -277 46q-14 24 -12 104l12 47q93 22 192 66l47 44q51 44 58 88q-8 25 -65 62t-134 59 l-87 15q-52 -2 -224 -7q-22 106 30 162l10 3l8 -2q6 -19 69 -32q49 9 126 2h2q52 -6 115 -20l94 -30q83 -33 144 -82q109 -91 88 -175q-44 -112 -240 -205q13 5 78 -2l105 -25q71 -23 125 -68q40 -48 22 -124q-68 -170 -632 -445q-34 -19 -39 -41q-143 56 -138 75z" />
<glyph unicode="4" horiz-adv-x="973" d="M-21 613q22 73 85 115q480 312 699 530q158 177 192 150l92 -75q26 -54 -20 -92t-233 -175q-65 -36 -63 -47q-417 -263 -428 -352q16 -13 128 -18t219 -23q36 208 74 296q-1 48 138 50l70 11l-1 -6q-44 -71 -53 -142l-28 -131q-2 -10 -4 -22l-7 -48q-3 -24 -5 -51l53 -21 l59 -32q3 -14 -43 -38l-78 -13l-3 -42q-7 -102 -11 -231l7 -21l-5 -4l2 -24l4 -129l-25 -4l-6 -7l1 -6q-6 5 -16 9l-128 -23q-11 26 -17 53v2q-23 81 -18 284l18 99l5 56q-58 5 -185 13.5t-185 12.5q-270 21 -284 96z" />
<glyph unicode="5" horiz-adv-x="755" d="M-129 101l4 18q90 158 107 214q42 153 -71 181l-6 17q136 22 155 17q131 -59 92 -197l-12 -41q-9 -36 -17 -37l-1 -5q26 -6 160 72l139 94q106 115 117 210q-14 35 -52 45l-82 12q-193 28 -284 49q-29 46 -10 111l10 75l9 190l3 -1v11q-6 36 0 87h3v6l11 7q49 3 90 7.5 t64 6.5q186 16 438 96l38 29q27 8 57 -42q30 -60 12 -81l-42 -25q-111 -56 -209 -78q-154 -42 -286 -54q3 -67 -2 -100l-6 -32l2 -55q-1 -14 -3 -27q96 -11 173 -18q176 -35 215 -118q59 -73 -7 -233q-77 -214 -632 -445q-34 -19 -39 -41q-143 56 -138 75z" />
<glyph unicode="6" horiz-adv-x="836" d="M19 525q-5 132 63 269q64 153 215 360q201 226 385 266l139 8l27 2l50 -1l14 1l1 -7q-161 -45 -389 -293q-102 -123 -184 -269l-68 -159q-94 -278 -22 -394q87 -121 257 -104q167 98 115 257l-76 125q-113 105 -227 75l68 171q256 -20 324 -133l70 -115 q104 -360 -177 -526l-10 -7l-113 -28q-234 -20 -383 166q-87 114 -79 336z" />
<glyph unicode="7" horiz-adv-x="799" d="M0 1121q46 200 57 201l20 2l9 -20h-6l38 -57q107 -42 237.5 -28t341.5 114l43 -3l13 2l56 -197l2 -14q-65 -36 -142 -201q-65 -114 -114 -218l82 10q63 9 125 31h12q22 -29 -70 -152l-10 -7q-74 -6 -160 -17l-38 -1q-116 -301 -72 -528q-43 1 -79 18l-114 -1 q-15 254 72 505h-18l-82 1l-29 -2l69 93l18 15l87 10q16 37 34 74q101 176 197 317q-258 -90 -442 -54q-98 26 -137 107zM98 555q-54 2 15 90l19 16l27 1l49 5l-70 -95l-22 -17h-18z" />
<glyph unicode="8" horiz-adv-x="805" d="M12 364q-15 66 12 158q45 105 109 128l53 2q160 -1 162 -38l-124 -153q-41 -168 136 -241q90 -6 167 43l40 112q-34 210 -216 330l-106 7l-73 13l-1 7q42 16 89 43l-61 47q-95 97 -110 204l-3 60h9l6 75q38 97 139 164q126 46 219 30q167 -29 228 -237q14 -52 -3.5 -128 t-95.5 -169h1q-1 -1 -10.5 -12t-30.5 -33l31 -20q174 -149 185 -308l1 -77l-10 -98l-74 -105l-125 -87q-160 -50 -277 -25q-205 45 -267 308zM273 1063q20 -86 127 -161q64 60 89 160q21 121 -92 167q-65 -10 -97 -48l-16 -36z" />
<glyph unicode="9" horiz-adv-x="799" d="M29 795q-103 145 32 395l7 10l87 76q218 108 463 -30l1 28l8 8l-1 6q35 -24 124 -61l7 8l7 -17l28 -22l19 -188v-9l-7 -129l-1 -24q2 -379 -210 -819q-1 -53 -154 -51l-79 -10l1 7q52 76 136 351l36 143q9 40 31 148q-221 -58 -321 1q-141 46 -214 179zM191 1073 q-88 -164 43 -269q60 -47 131 -45q107 -35 228 75l11 143q-29 111 -193 176q-150 30 -220 -80z" />
<glyph unicode=":" horiz-adv-x="451" d="M90 227q30 122 105 104l45 4q111 -7 80 -107q-19 -124 -210 -118q-72 13 -20 117zM114 817q30 122 105 104l45 4q111 -7 80 -107q-19 -124 -210 -118q-72 13 -20 117z" />
<glyph unicode=";" horiz-adv-x="451" d="M-60 257v7q52 56 136 83l90 -9q164 -18 337 -184q-2 -27 11 -29q-36 -108 -81 -103q-101 66 -493 235zM114 817q30 122 105 104l45 4q111 -7 80 -107q-19 -124 -210 -118q-72 13 -20 117z" />
<glyph unicode="=" horiz-adv-x="953" d="M-26 576q21 60 102 53q87 -3 161 -3.5t274 12.5h6q195 24 339 53l-20 -153q-61 -24 -192.5 -26.5t-154.5 -9.5l-363 3l-36 -3l-14 1l-5 8l-52 -3l-42 16zM11 811l6 107q102 -6 267.5 -1.5t371.5 33.5l-1 -6l281 57l6 -9l-2 -6q-73 -135 -118 -125q-294 -79 -626 -81 q-135 4 -170 -6z" />
<glyph unicode="?" horiz-adv-x="1083" d="M-84 380q10 23 19 47l119 173q177 228 373 378q64 37 62 48q444 270 427 354q-43 33 -237 17l2 -7l-150 -1l2 -7l-321 9l-7 -2l2 -7q249 -85 298 -77l5 -19l-127 -81q-129 10 -257 84q-137 71 -114 129q-17 51 79 85q130 -13 444 -14q679 75 705 -54q-20 -55 -85 -116 q-496 -315 -697 -533q-134 -103 -192 -231l-56 -117q-9 -109 -75 -122q-203 -16 -216 50zM-77 113q30 122 105 104l45 4q111 -7 80 -107q-19 -124 -210 -118q-72 13 -20 117zM408 1217l136 75l28 -1l20 4l5 -21l-128 -74l-57 -5z" />
<glyph unicode="@" horiz-adv-x="2019" d="M100 508q0 242 124 464.5t345.5 342t456.5 119.5q362 0 609 -230t247 -566q0 -249 -149 -412q-113 -60 -221 -33q-159 38 -356 214q-137 159 -228 353q-55 72 -53 90l-14 1l-8 -76l-32 -171l119 1q60 -10 115 -96l7 -2l-2 -27q-294 7 -304 -87l-71 -146l17 -30l-10 -20 l-81 16l-8 1l-237 11l2 14q97 102 157 221l-5 92l59 21l89 299h-7l7 7l18 166l-4 36l37 10q78 -44 183 -55v6l7 -6l7 -1l111 -5q110 -249 322 -533l120 -118q133 -126 161 -80q68 34 80 354q-20 335 -224.5 531.5t-487.5 196.5q-205 0 -392.5 -137.5t-269.5 -355.5 q-67 -178 -67 -361q0 -313 129.5 -511.5t305 -290.5t318.5 -92q274 0 575 208v-75q-263 -184 -571 -184q-240 0 -461 122.5t-343 342t-122 461.5z" />
<glyph unicode="A" d="M-152 246l2 14q97 102 157 221l-5 92l59 21l89 299h-7l7 7l18 166l-4 36l37 10q78 -44 183 -55v6l7 -6l7 -1l111 -5q110 -249 322 -533l120 -118q197 -139 264 -147l-1 -14q-9 1 -22 1q-63 0 -198 -26q-159 38 -356 214q-137 159 -228 353q-55 72 -53 90l-14 1l-8 -76 l-32 -171l119 1q60 -10 115 -96l7 -2l-2 -27h-39q-255 0 -265 -87l-71 -146l17 -30l-10 -20l-81 16l-8 1z" />
<glyph unicode="B" horiz-adv-x="1050" d="M-75 1004v22q43 47 101 59l220 77q83 28 316 33l98 -6q89 -12 160 -45q128 -62 128 -149q-16 -119 -184 -257q12 8 77 17l107 1q75 -5 138 -35q51 -37 51 -115q-24 -182 -505 -585q-28 -27 -28 -49q-152 20 -152 39v19q49 175 49 254q0 176 -117 176l-10 15 q127 54 147 54q141 -25 141 -186v-64q0 -37 -7 -40v-5q27 0 134 126l109 125q27 55 27 108q-18 15 -34 15h-49q-273 -7 -495 -107q10 -96 10 -187q0 -107 -14 -206l-16 -13l-41 13l-41 8h-98l31 156q0 379 -253 732zM175 995q33 -44 89 -166q43 -71 64 -173l153 59 q122 55 215 128l35 54q35 50 35 91v8q-14 23 -78.5 45t-144.5 25l-88 -7q-123 -9 -280 -64z" />
<glyph unicode="C" horiz-adv-x="738" d="M-3 639.5q0 272.5 379 436.5q78 0 270 -90v-10l-178 -62q-255 -156 -255 -331q0 -15 2 -31q13 -94 57 -126q35 -25 103 -25q17 0 37 2q96 8 193 158q8 3 15 3q54 0 86 -158q-105 -179 -379 -179h-11l-99 31q-220 109 -220 381.5zM496 1096v10h70q71 0 260 -70l-110 -20 q-220 52 -220 80z" />
<glyph unicode="D" horiz-adv-x="1431" d="M-98 1700l1 14q8 67 211 68q67 -7 86 -115l65 -112q229 -298 372 -390q218 -200 740 -471q70 -55 94 -108q-12 -105 -469 -105q-112 0 -250 6q-300 -28 -435 -79q-83 37 -123 42l-131 14l1 6l28 67l33 116l16 76l2 27l2 70l6 -1q-2 242 -74 477q-76 206 -175 398z M177 1334q119 -110 127 -189q55 -159 55 -340q0 -65 -7 -134l-3 -35q121 85 249 106l133 -70l-3 -20h-4q-55 0 -287 -102l-1 -7l7 -1l319 36l-1 -7l149 12l-1 -7q195 0 235 37q9 85 -456 316q1 11 -66 42q-208 133 -404 345l-39 25zM624 732l2 22h57l134 -63l-3 -21l-21 2 l-28 -3z" />
<glyph unicode="E" horiz-adv-x="917" d="M-5 782l8 5l1 8l-1 63l1 6l16 13l6 -8q15 -2 33 -2q126 0 424 79q299 105 331 154l71 -120l-1 -14q-278 -166 -638 -197l-1 -15l46 -88l14 -2q337 122 429 122q6 0 12 -1l68 -77v-7q-7 -11 -209 -47l-282 -83q7 -59 34 -136q231 138 638 197l113 16q57 -14 57 -70 q0 -14 -3 -30l-54 -12l-39 -3q-348 -46 -621 -241l-101 -87l-181 19q-13 1 -11 23l8 5q4 62 4 109q0 150 -39 154l-58 48l1 8q1 10 59 28l1 14q3 21 -55 139l-71 -7z" />
<glyph unicode="F" horiz-adv-x="838" d="M-10 816q8 56 37 63l51 -5q342 33 506.5 104t230.5 123l14 -1q63 -94 61 -122q-186 -118 -526 -191q-123 -4 -125 -24v-5q0 -35 48 -94l21 -2q185 80 432 129q79 -61 86 -81q-37 -23 -223.5 -68t-274.5 -68l-8 -14l29 -133q8 -76 8 -145q0 -149 -37 -266l-176 16l15 200 v34q2 39 2 73q0 180 -55 185q-48 20 -46 34l68 44l3 21q-38 102 -66 129l-43 5l-8 -7q-26 7 -26 45q0 10 2 21z" />
<glyph unicode="G" horiz-adv-x="965" d="M-9 624.5q0 280.5 391 450.5q80 0 278 -94v-9q-246 -46 -348 -170q-98 -119 -98 -255v-11q12 -71 63.5 -121.5t165.5 -55.5h17q43 0 67 13q84 32 152 84q71 42 71 67h-126q-151 0 -174 132q0 18 51 137l14 -9q0 -110 164 -110q74 0 237 46h18q19 0 37 -142q-20 0 -45 -27 l-144 -179q-47 -63 -106 -99.5t-118 -50.5l-122 -11q-89 4 -135 22v-1q-310 113 -310 393.5zM506 1095v10h72q72 0 267 -72l-113 -20q-226 53 -226 82z" />
<glyph unicode="H" horiz-adv-x="911" d="M-97 1156l1 27q41 71 132 71h10q77 -3 118 -149q48 -65 104 -290q65 -1 129 -1h191q65 285 233 565q1 17 203 29l-1 -8q-157 -390 -186 -603q25 -8 44 -22l17 -19l8 -36l-3 -36q-8 -27 -23 -39q-15 -18 -61 -20l-40 -197l-10 -97l-2 -47l-16 -15q-82 -10 -198 -26l-9 109 l12 271q0 5 1 10q-13 2 -49.5 4.5t-93.5 5.5l-45 5q-35 1 -70 1q14 -48 23 -137l3 -118l-10 -75q-3 -71 -49 -123l-123 -12l-87 -7l36 132q20 86 20 179q0 78 -14 160q-82 40 -80 91q13 45 46 67q-78 248 -161 350z" />
<glyph unicode="I" horiz-adv-x="396" d="M-5 503l8 6l-4 35l2 14l8 6l-6 8l20 131l35 135l257 19l-66 -144q-36 -140 -56 -252l4 -106l13 -1l1 14l193 -36l-1 -6q-59 -63 -92 -137l-34 3q-9 1 -19 1q-61 0 -167 -37q-67 8 -94 234zM153 1093q26 106 86 107q9 0 19 -3l45 4q87 -5 87 -68q0 -17 -7 -39 q-18 -118 -193 -118h-17q-42 8 -42 46q0 27 22 71z" />
<glyph unicode="J" horiz-adv-x="463" d="M-53 294q0 26 131 60h3q21 0 53 -57l36 -90q62 13 62 222q0 166 -39 455l9 175q-2 10 -2 19q0 31 18 59l267 19l4 -22l-42 -59l-28 -149q11 -136 11 -250q0 -484 -192 -579l-97 24l-83 -4q-4 -1 -8 -1q-103 0 -103 178z" />
<glyph unicode="K" horiz-adv-x="714" d="M2 248v126l4 123l-3 42l7 6l1 7l-3 36l10 26l-7 1l9 21q37 337 181 736q3 40 112 40q20 0 45 -1l79 5l-1 -6q-56 -67 -107 -325q-23 -90 -43 -194q214 176 281 221q50 -13 110 -96q-6 -29 -10 -61q-148 -89 -307 -215q56 -109 161.5 -260.5t200.5 -246.5q-6 -31 -23 -63 l-223 4q-74 138 -203 329l-37 52q-7 -57 -13 -117l5 -21l-8 -6v-8l2 -42l-8 -5l4 -36l-12 -104l-8 -7v-6q-34 24 -121 48l-8 -7l-7 2z" />
<glyph unicode="L" horiz-adv-x="336" d="M1 487l7 7v7l-4 36l9 26l-7 1l8 21q21 338 147 744q1 46 143 46h12l78 8v-6q-53 -69 -92 -329q-19 -91 -34 -196l-35 -338q-4 -57 -8 -117l6 -21l-7 -7v-8l4 -41l-8 -6l6 -36l-7 -104l-8 -7v-6q-35 22 -123 42l-8 -7l-7 1h-60l-5 126l-2 123z" />
<glyph unicode="M" horiz-adv-x="1113" d="M-23 292l60 232l-3 28l9 21l-5 21l1 14l7 -1l5 238l6 -1q-6 23 -6 53q0 21 3 45l7 -1q139 28 192 28q8 0 14 -1q39 -145 220 -367l13 -15l13 -1l25 102q3 29 3 67q0 159 -58 465h-7q62 79 87 89q264 -86 260 -119q53 -278 196 -588q97 -187 223 -340q228 -248 389 -293 l-1 -7l-8 -7l-6 8l-50 -1l-166 10q-184 40 -385 266q-196 269 -246 447q-45 101 -43 130l-7 1l-1 -14q15 -97 15 -190q-1 -62 -7 -122q-16 -151 -60 -236l-223 4q-74 138 -203 329l3 -35l-13 -124q-7 -63 -44 -157l6 -1q-10 -27 -30 -25l-178 48h-7z" />
<glyph unicode="N" horiz-adv-x="1026" d="M-122 1003q218 5 220 19q323 -168 509 -405l99 -130l7 -1l1 8l-3 42l7 6l1 7l-3 36l10 26l-7 1l9 21q37 337 268 727q3 40 112 40q20 0 45 -1l79 5l-1 -6q-56 -67 -152 -313l-42 -128q-43 -139 -106 -522l5 -21l-8 -6v-8l2 -42l-8 -5l4 -36l-12 -104l-8 -7v-6 q-34 24 -121 48l-8 -7l-68 15l-8 -7l1 8l-85 -5q-179 327 -387 434l-7 1l-1 -7q72 -45 71 -57l-2 -21q-13 -113 -75 -237l-7 1q-124 98 -146 142l-4 21l7 6q1 11 1 24q0 101 -86 293z" />
<glyph unicode="O" horiz-adv-x="575" d="M-60 936l1 13l179 38l42 -5l6 -8l8 6l20 -2l7 -7l7 -1l7 5l6 -6l-1 -7l-179 -44l-49 12zM4 682q10 84 107 159l7 -2q112 -62 108 -109l-55 -114q-1 -9 -1 -18q0 -86 89 -145q31 34 36 74l3 27l-3 35h7q-41 178 -141 260q-93 37 -93 50t195 50l14 -1q192 -116 223 -268 l8 -57h-7v-70l-95 -165l-7 1q-88 -45 -159 -45q-11 0 -21 1q-141 15 -209 205q-10 30 -10 74q0 27 4 58z" />
<glyph unicode="P" horiz-adv-x="947" d="M-69 998v21q43 48 100 60q483 134 794 134q41 0 79 -2q155 -41 155 -129q-24 -180 -501 -580q-29 -27 -29 -48q-150 19 -150 39v19q48 173 48 252q0 175 -117 175l-10 15q127 54 146 54q141 -25 141 -185v-64q0 -37 -4 -47v-4q27 0 160 153l98 117q28 39 28 76 q0 14 -4 28q-18 14 -34 14l-34 3q-304 -2 -633 -130q21 -19 91 -159q85 -195 85 -475q0 -113 -14 -241l-77 20h-97l31 155q0 378 -252 729z" />
<glyph unicode="Q" horiz-adv-x="799" d="M-3 698.5q0 304.5 246 427.5l111 34h12h7q320 0 418 -357v-135q0 -133 -237 -335l115 -56l68 -39q-108 -50 -263 -72q-477 228 -477 532.5zM199 747v-6q0 -120 230 -316q120 105 162 254v146q-37 159 -223 159h-9q-107 -30 -147 -118z" />
<glyph unicode="R" horiz-adv-x="965" d="M-77 1006v21q43 49 102 61q420 117 679 117q84 0 150 -12q158 -42 158 -131q-7 -219 -483 -579q141 -197 436 -384q4 -5 4 -8q0 -12 -46 -13q-50 0 -153 15q-220 132 -301.5 216t-115.5 159l-6 46q190 123 386 341l67 106q19 46 19 74q0 17 -7 26q-11 23 -42 25h-24 q-277 0 -586 -109q21 -20 78 -143q95 -215 95 -544q0 -96 -8 -203l-78 21h-99l31 157q0 384 -256 741z" />
<glyph unicode="S" horiz-adv-x="1676" d="M-190 283l8 69l18 39q23 71 102 165q13 52 335 333.5t347 279.5l254 15l-2 -22q-68 -10 -452 -293q-311 -258 -398 -379l-1 -14q4 -21 38 -25q32 -3 66 -3q108 0 232 34l6 -7l7 -1q774 155 1087 198l237 -4l35 -3l102 -25q105 -63 108 -173q-31 -180 -709 -659 q-194 -102 -214 -167l-211 58l2 13l-3 43q100 211 117 365q2 16 2 31q0 92 -55 186l-82 29v-6l-20 9l2 20q1 11 223 60q112 -42 160 -143q11 -56 11 -116q0 -38 -4 -80q-12 -106 -89 -237q125 68 301 249q309 292 347 425q-7 28 -61 34l-34 4l-43 -2l-5 7l-7 1 q-457 -42 -826 -128q-635 -227 -820 -227q-13 0 -24 1q-60 7 -79 44zM657 723l1 14q106 91 214 299l8 7q51 119 78 145l239 9l-148 -277l-110 -177l-277 -27z" />
<glyph unicode="T" horiz-adv-x="817" d="M-457 954l1 14l28 -2l49 1l47 -88l-1 -15l-21 2q-64 7 -103 88zM-338 949l1 13l112 3l53 -103l-8 -7l-63 7l-49 -3zM-191 961l240 3v6l-49 62l2 20l247 16q23 -2 47 -89q360 31 366 87l8 5l13 -1q76 -52 100 -179l-1 -7q-196 -27 -452 -42q36 -186 193 -406l78 -64 q40 85 44 150q163 -46 162 -61l5 -7v-7l-6 1l5 -8q-40 -135 -115 -135q-5 0 -10 1l-170 -16q-95 42 -214 170l-107 173q-93 172 -90 205l-35 4l-8 -7l-7 2l1 6l-7 -5l-104 10h-63q-22 2 -73 113z" />
<glyph unicode="U" horiz-adv-x="666" d="M9 880q4 42 77 42q13 0 28 -1l109 25l7 -7l-15 -156q-1 -14 -1 -29q0 -122 90 -251l20 -9q40 38 80 164l13 142q2 26 2 53q0 117 -45 258l1 14q27 59 131 59q18 0 39 -2l56 -6q19 -22 18 -110q0 -64 -9 -162q-23 -235 -100 -413q-103 -160 -193 -160h-8l-64 6 q-87 8 -181 203q-56 172 -56 301q0 20 1 39z" />
<glyph unicode="V" horiz-adv-x="826" d="M2 1106l2 13q28 54 121 54q23 0 51 -3l57 -8q5 -41 113 -308.5t154 -310.5l22 -3q41 97 48 153l20 156q1 11 1 24q0 123 -127 404l1 7l168 14q99 -73 167 -389l9 -160l-4 -28q-45 -347 -153 -400l-106 22q-79 8 -115 8q-29 0 -29 -5q-50 42 -129.5 172.5t-270.5 587.5z " />
<glyph unicode="W" horiz-adv-x="1201" d="M11 917l221 32l6 -7l-2 -22l-14 -61l5 -21l-7 -6l-1 -8q16 -268 61 -272q-2 -22 36 -53q76 114 89 235l5 49q3 32 3 65q0 121 -45 262l2 13q34 50 114 50q15 0 31 -2l98 -4l137 -351q92 -205 133 -260q28 68 60 226l-6 22l8 5q1 14 1 28q0 147 -86 353l-60 98l1 6l218 5 q149 -258 150 -469q0 -40 -6 -79l7 -8l-8 -6l-5 -41q-21 -197 -106 -346l-77 8l-6 8h-7l-1 -7l-6 8l-196 7l-178 299q-11 -110 -164 -297q-41 -41 -121 -41q-21 0 -44 3q-161 17 -226 374q-14 94 -14 176v29z" />
<glyph unicode="X" horiz-adv-x="678" d="M-33 1229q54 66 80 74l179 -78q33 -16 85 -234q73 148 160 270q1 4 19 4q43 0 180 -23l-1 -7q-199 -287 -266 -459q114 -232 258 -374q118 -134 225 -195q-2 -7 -66.5 -7t-191.5 7l-2 -8q-193 128 -324 286q-48 -118 -70 -261l-11 -39q-42 17 -199 23l47 238l61 225 q11 32 24 62q-132 277 -187 496z" />
<glyph unicode="Y" horiz-adv-x="617" d="M9 880q4 42 77 42q13 0 28 -1l109 25l7 -7l-15 -156q-1 -14 -1 -29q0 -121 90 -251l20 -9q40 38 80 164l13 142q2 26 2 53q0 118 -45 258l1 14q27 59 131 59q19 0 39 -2l56 -6q19 -22 19 -110q0 -64 -10 -162q-23 -235 -100 -413q-42 -65 -82 -104l-35 -226l-37 -160 l-184 -30l-17 40q52 91 79 255l4 7q3 37 6 64q-86 9 -180 203q-56 172 -56 301q0 20 1 39z" />
<glyph unicode="Z" horiz-adv-x="926" d="M-40 1135h6q247 -51 445 -72l322 -4l65 -7l25 -36q-6 -28 -6 -84q0 -21 1 -46l-4 -58q-32 -57 -94 -122q105 6 168 23l12 -1q3 -5 3 -12q0 -37 -87 -133l-11 -6q-114 -2 -216 -4q-108 -104 -240 -220l-13 -24q77 -9 177 -9q106 0 237 10q3 42 -69 125l21 24l46 -1 q36 6 66 6q62 0 102 -26q73 -213 73 -286q0 -39 -20 -39q-303 24 -530 24q-222 0 -371 -23l-39 32q1 8 1 16q0 47 -20 100q-7 13 -7 25q0 37 65 66q144 102 272 216l-81 9h-29l77 87l20 13l120 3q39 41 77.5 88.5t43.5 62.5v13l-83 2q-308 20 -490 85q-14 0 -35 183z M154 602q-22 3 -22 18q0 22 45 70l21 14l26 -2l50 1l-79 -88l-23 -15z" />
<glyph unicode="[" horiz-adv-x="485" d="M24 265v317q18 450 135 1020q6 42 110 86t509 3q29 -159 -22 -149q-243 7 -384 -31q-75 -532 -87 -818l-1 -472l27 -320q163 -30 326 -3q235 49 47 -180q-464 -34 -612 47z" />
<glyph unicode="\" horiz-adv-x="702" d="M4 1392l44 10l6 2l10 -7q103 -18 133 6l1 -6l9 -7l11 -62l2 -36l9 -5l6 -42l2 -8l9 -6l-1 -21q134 -383 203 -522l65 -128q142 -246 211 -313l2 -6l-80 5q-151 -9 -164 39q-304 390 -404 727l-13 21l7 1l-15 26l-3 36l-3 7l-8 6l-4 42q-38 132 -35 241z" />
<glyph unicode="]" horiz-adv-x="485" d="M-304 1684q405 41 509 -3t110 -86q117 -570 129 -1020v-317l-42 -500q-148 -81 -612 -47q-188 229 47 180q163 -27 326 3l27 320v439q-13 319 -88 851q-141 38 -384 31q-51 -10 -22 149z" />
<glyph unicode="^" horiz-adv-x="584" d="M16 1203q60 129 74 311l-8 113l19 -3q98 -24 180 -24l75 6q30 -30 121 -179q151 -199 -34 -220q-132 186 -191 249l-11 -12v-23l-48 -211z" />
<glyph unicode="_" horiz-adv-x="1024" d="M-70 -112q21 60 113 54.5t145 -2.5q353 -4 757 92v-6l274 82l7 -8l-1 -6q-61 -141 -106 -136q-286 -106 -616 -138q-32 1 -55 -5l-360 -7l-42 6l-14 1l-5 8l-52 -3l-42 16z" />
<glyph unicode="`" horiz-adv-x="336" d="M-218 1022v7q52 56 136 83l90 -9q164 -18 337 -184q-2 -27 11 -29q-36 -108 -81 -103q-101 66 -493 235z" />
<glyph unicode="a" d="M-152 246l2 14q97 102 157 221l-5 92l59 21l89 299h-7l7 7l18 166l-4 36l37 10q78 -44 183 -55v6l7 -6l7 -1l111 -5q110 -249 322 -533l120 -118q197 -139 264 -147l-1 -14q-9 1 -22 1q-63 0 -198 -26q-159 38 -356 214q-137 159 -228 353q-55 72 -53 90l-14 1l-8 -76 l-32 -171l119 1q60 -10 115 -96l7 -2l-2 -27h-39q-255 0 -265 -87l-71 -146l17 -30l-10 -20l-81 16l-8 1z" />
<glyph unicode="b" horiz-adv-x="1050" d="M-75 1004v22q43 47 101 59l220 77q83 28 316 33l98 -6q89 -12 160 -45q128 -62 128 -149q-16 -119 -184 -257q12 8 77 17l107 1q75 -5 138 -35q51 -37 51 -115q-24 -182 -505 -585q-28 -27 -28 -49q-152 20 -152 39v19q49 175 49 254q0 176 -117 176l-10 15 q127 54 147 54q141 -25 141 -186v-64q0 -37 -7 -40v-5q27 0 134 126l109 125q27 55 27 108q-18 15 -34 15h-49q-273 -7 -495 -107q10 -96 10 -187q0 -107 -14 -206l-16 -13l-41 13l-41 8h-98l31 156q0 379 -253 732zM175 995q33 -44 89 -166q43 -71 64 -173l153 59 q122 55 215 128l35 54q35 50 35 91v8q-14 23 -78.5 45t-144.5 25l-88 -7q-123 -9 -280 -64z" />
<glyph unicode="c" horiz-adv-x="738" d="M-3 639.5q0 272.5 379 436.5q78 0 270 -90v-10l-178 -62q-255 -156 -255 -331q0 -15 2 -31q13 -94 57 -126q35 -25 103 -25q17 0 37 2q96 8 193 158q8 3 15 3q54 0 86 -158q-105 -179 -379 -179h-11l-99 31q-220 109 -220 381.5zM496 1096v10h70q71 0 260 -70l-110 -20 q-220 52 -220 80z" />
<glyph unicode="d" horiz-adv-x="1431" d="M-98 1700l1 14q8 67 211 68q67 -7 86 -115l65 -112q229 -298 372 -390q218 -200 740 -471q70 -55 94 -108q-12 -105 -469 -105q-112 0 -250 6q-300 -28 -435 -79q-83 37 -123 42l-131 14l1 6l28 67l33 116l16 76l2 27l2 70l6 -1q-2 242 -74 477q-76 206 -175 398z M177 1334q119 -110 127 -189q55 -159 55 -340q0 -65 -7 -134l-3 -35q121 85 249 106l133 -70l-3 -20h-4q-55 0 -287 -102l-1 -7l7 -1l319 36l-1 -7l149 12l-1 -7q195 0 235 37q9 85 -456 316q1 11 -66 42q-208 133 -404 345l-39 25zM624 732l2 22h57l134 -63l-3 -21l-21 2 l-28 -3z" />
<glyph unicode="e" horiz-adv-x="917" d="M-5 782l8 5l1 8l-1 63l1 6l16 13l6 -8q15 -2 33 -2q126 0 424 79q299 105 331 154l71 -120l-1 -14q-278 -166 -638 -197l-1 -15l46 -88l14 -2q337 122 429 122q6 0 12 -1l68 -77v-7q-7 -11 -209 -47l-282 -83q7 -59 34 -136q231 138 638 197l113 16q57 -14 57 -70 q0 -14 -3 -30l-54 -12l-39 -3q-348 -46 -621 -241l-101 -87l-181 19q-13 1 -11 23l8 5q4 62 4 109q0 150 -39 154l-58 48l1 8q1 10 59 28l1 14q3 21 -55 139l-71 -7z" />
<glyph unicode="f" horiz-adv-x="838" d="M-10 816q8 56 37 63l51 -5q342 33 506.5 104t230.5 123l14 -1q63 -94 61 -122q-186 -118 -526 -191q-123 -4 -125 -24v-5q0 -36 48 -94l21 -2q185 80 432 129q79 -61 86 -81q-37 -23 -223.5 -68t-274.5 -68l-8 -14l29 -133q8 -76 8 -145q0 -148 -37 -266l-176 16l15 200 v34q2 39 2 73q0 180 -55 185q-48 20 -46 34l68 44l3 21q-38 102 -66 129l-43 5l-8 -7q-26 7 -26 45q0 9 2 21z" />
<glyph unicode="g" horiz-adv-x="965" d="M-9 624.5q0 280.5 391 450.5q80 0 278 -94v-9q-246 -46 -348 -170q-98 -119 -98 -255v-11q12 -71 63.5 -121.5t165.5 -55.5h17q43 0 67 13q84 32 152 84q71 42 71 67h-126q-151 0 -174 132q0 18 51 137l14 -9q0 -110 164 -110q74 0 237 46h18q19 0 37 -142q-20 0 -45 -27 l-144 -179q-47 -63 -106 -99.5t-118 -50.5l-122 -11q-89 4 -135 22v-1q-310 113 -310 393.5zM506 1095v10h72q72 0 267 -72l-113 -20q-226 53 -226 82z" />
<glyph unicode="h" horiz-adv-x="1014" d="M-97 1156l1 27q41 71 132 71h10q77 -3 118 -149q48 -65 104 -290q65 -1 129 -1h285q65 285 233 565q1 17 203 29l-1 -8q-157 -390 -186 -603q25 -8 44 -22l17 -19l8 -36l-3 -36q-8 -27 -23 -39q-15 -18 -61 -20l-40 -197l-10 -97l-2 -47l-16 -15q-82 -10 -198 -26l-9 109 l12 271q0 5 1 10q-13 2 -49.5 4.5t-93.5 5.5l-139 5q-35 1 -70 1q14 -48 23 -137l3 -118l-10 -75q-3 -71 -49 -123l-123 -12l-87 -7l36 132q20 86 20 179q0 78 -14 160q-82 40 -80 91q13 45 46 67q-78 248 -161 350z" />
<glyph unicode="i" horiz-adv-x="396" d="M-5 503l8 6l-4 35l2 14l8 6l-6 8l20 131l35 135l257 19l-66 -144q-36 -140 -56 -252l4 -106l13 -1l1 14l193 -36l-1 -6q-59 -63 -92 -137l-34 3q-9 1 -19 1q-61 0 -167 -37q-67 8 -94 234zM153 1093q26 106 86 107q9 0 19 -3l45 4q87 -5 87 -68q0 -17 -7 -39 q-18 -118 -193 -118h-17q-42 8 -42 46q0 27 22 71z" />
<glyph unicode="j" horiz-adv-x="463" d="M-53 294q0 26 131 60h3q21 0 53 -57l36 -90q62 13 62 222q0 166 -39 455l9 175q-2 10 -2 19q0 31 18 59l267 19l4 -22l-42 -59l-28 -149q11 -136 11 -250q0 -484 -192 -579l-97 24l-83 -4q-4 -1 -8 -1q-103 0 -103 178z" />
<glyph unicode="k" horiz-adv-x="714" d="M2 248v126l4 123l-3 42l7 6l1 7l-3 36l10 26l-7 1l9 21q37 337 181 736q3 40 112 40q20 0 45 -1l79 5l-1 -6q-56 -67 -107 -325q-23 -90 -43 -194q214 176 281 221q50 -13 110 -96q-6 -29 -10 -61q-148 -89 -307 -215q56 -109 161.5 -260.5t200.5 -246.5q-6 -31 -23 -63 l-223 4q-74 138 -203 329l-37 52q-7 -57 -13 -117l5 -21l-8 -6v-8l2 -42l-8 -5l4 -36l-12 -104l-8 -7v-6q-34 24 -121 48l-8 -7l-7 2z" />
<glyph unicode="l" horiz-adv-x="336" d="M1 487l7 7v7l-4 36l9 26l-7 1l8 21q21 338 147 744q1 46 143 46h12l78 8v-6q-53 -69 -92 -329q-19 -91 -34 -196l-35 -338q-4 -57 -8 -117l6 -21l-7 -7v-8l4 -41l-8 -6l6 -36l-7 -104l-8 -7v-6q-35 22 -123 42l-8 -7l-7 1h-60l-5 126l-2 123z" />
<glyph unicode="m" horiz-adv-x="1113" d="M-23 292l60 232l-3 28l9 21l-5 21l1 14l7 -1l5 238l6 -1q-6 23 -6 53q0 21 3 45l7 -1q139 28 192 28q8 0 14 -1q39 -145 220 -367l13 -15l13 -1l25 102q3 29 3 67q0 159 -58 465h-7q62 79 87 89q264 -86 260 -119q53 -278 196 -588q97 -187 223 -340q228 -248 389 -293 l-1 -7l-8 -7l-6 8l-50 -1l-166 10q-184 40 -385 266q-196 269 -246 447q-45 101 -43 130l-7 1l-1 -14q15 -97 15 -190q-1 -62 -7 -122q-16 -151 -60 -236l-223 4q-74 138 -203 329l3 -35l-13 -124q-7 -63 -44 -157l6 -1q-10 -27 -30 -25l-178 48h-7z" />
<glyph unicode="n" horiz-adv-x="1026" d="M-122 1003q218 5 220 19q323 -168 509 -405l99 -130l7 -1l1 8l-3 42l7 6l1 7l-3 36l10 26l-7 1l9 21q37 337 268 727q3 40 112 40q20 0 45 -1l79 5l-1 -6q-56 -67 -152 -313l-42 -128q-43 -139 -106 -522l5 -21l-8 -6v-8l2 -42l-8 -5l4 -36l-12 -104l-8 -7v-6 q-34 24 -121 48l-8 -7l-68 15l-8 -7l1 8l-85 -5q-179 327 -387 434l-7 1l-1 -7q72 -45 71 -57l-2 -21q-13 -113 -75 -237l-7 1q-124 98 -146 142l-4 21l7 6q1 11 1 24q0 101 -86 293z" />
<glyph unicode="o" horiz-adv-x="575" d="M-60 936l1 13l179 38l42 -5l6 -8l8 6l20 -2l7 -7l7 -1l7 5l6 -6l-1 -7l-179 -44l-49 12zM4 682q10 84 107 159l7 -2q112 -62 108 -109l-55 -114q-1 -9 -1 -18q0 -86 89 -145q31 34 36 74l3 27l-3 35h7q-41 178 -141 260q-93 37 -93 50t195 50l14 -1q192 -116 223 -268 l8 -57h-7v-70l-95 -165l-7 1q-88 -45 -159 -45q-11 0 -21 1q-141 15 -209 205q-10 30 -10 74q0 27 4 58z" />
<glyph unicode="p" horiz-adv-x="947" d="M-69 998v21q43 48 100 60q483 134 794 134q41 0 79 -2q155 -41 155 -129q-24 -180 -501 -580q-29 -27 -29 -48q-150 19 -150 39v19q48 173 48 252q0 175 -117 175l-10 15q127 54 146 54q141 -25 141 -185v-64q0 -37 -4 -47v-4q27 0 160 153l98 117q28 39 28 76 q0 14 -4 28q-18 14 -34 14l-34 3q-304 -2 -633 -130q21 -19 91 -159q85 -195 85 -475q0 -114 -14 -241l-77 20h-97l31 155q0 378 -252 729z" />
<glyph unicode="q" horiz-adv-x="799" d="M-3 698.5q0 304.5 246 427.5l111 34h12h7q320 0 418 -357v-135q0 -133 -225 -317l130 -53l59 -36q-126 -74 -281 -96q-477 228 -477 532.5zM208 747q0 -121 242 -321q99 104 141 253v146q-37 159 -223 159h-9q-107 -30 -147 -118z" />
<glyph unicode="r" horiz-adv-x="965" d="M-77 1006v21q43 49 102 61q420 117 679 117q84 0 150 -12q158 -42 158 -131q-7 -219 -483 -579q141 -197 436 -384q4 -5 4 -8q0 -12 -46 -13q-50 0 -153 15q-220 132 -301.5 216t-115.5 159l-6 46q190 123 386 341l67 106q19 46 19 74q0 17 -7 26q-11 23 -42 25h-24 q-277 0 -586 -109q21 -20 78 -143q95 -215 95 -544q0 -96 -8 -203l-78 21h-99l31 157q0 384 -256 741z" />
<glyph unicode="s" horiz-adv-x="1676" d="M-190 283l8 69l18 39q23 71 102 165q13 52 335 333.5t347 279.5l254 15l-2 -22q-68 -10 -452 -293q-311 -258 -398 -379l-1 -14q4 -21 38 -25q32 -3 66 -3q108 0 232 34l6 -7l7 -1q774 155 1087 198l237 -4l35 -3l102 -25q105 -63 108 -173q-31 -180 -709 -659 q-194 -102 -214 -167l-211 58l2 13l-3 43q100 211 117 365q2 16 2 31q0 92 -55 186l-82 29v-6l-20 9l2 20q1 11 223 60q112 -42 160 -143q11 -56 11 -116q0 -38 -4 -80q-12 -106 -89 -237q125 68 301 249q309 292 347 425q-7 28 -61 34l-34 4l-43 -2l-5 7l-7 1 q-457 -42 -826 -128q-635 -227 -820 -227q-13 0 -24 1q-60 7 -79 44zM657 723l1 14q106 91 214 299l8 7q51 119 78 145l239 9l-148 -277l-110 -177l-277 -27z" />
<glyph unicode="t" horiz-adv-x="493" d="M-52 1023q19 54 86 54q8 0 16 -1q60 -2 103 -2q107 0 108 14q28 112 65 112h3l205 13l-1 -7l-39 -108h6q261 21 463 69v-6l274 82l7 -8l-1 -6q-59 -136 -103 -136h-3q-286 -106 -616 -138h-9q-90 0 -95 -58l-83 -181q-36 -140 -56 -252l4 -106l13 -1l1 14l193 -36l-1 -6 q-59 -63 -92 -137l-34 3q-9 1 -19 1q-61 0 -167 -37q-67 8 -94 234l-2 113l8 6l-4 35l2 14l8 6l-6 8l20 131l60 231l-40 12l-28 3l-36 -3l-14 1l-5 8l-52 -3l-42 16z" />
<glyph unicode="u" horiz-adv-x="666" d="M9 880q4 42 77 42q13 0 28 -1l109 25l7 -7l-15 -156q-1 -14 -1 -29q0 -122 90 -251l20 -9q40 38 80 164l13 142q2 26 2 53q0 117 -45 258l1 14q27 59 131 59q18 0 39 -2l56 -6q19 -22 18 -110q0 -64 -9 -162q-23 -235 -100 -413q-103 -160 -193 -160h-8l-64 6 q-87 8 -181 203q-56 172 -56 301q0 20 1 39z" />
<glyph unicode="v" horiz-adv-x="826" d="M2 1106l2 13q28 54 121 54q23 0 51 -3l57 -8q5 -41 113 -308.5t154 -310.5l22 -3q41 97 48 153l20 156q1 11 1 24q0 123 -127 404l1 7l168 14q99 -73 167 -389l9 -160l-4 -28q-45 -347 -153 -400l-106 22q-79 8 -115 8q-29 0 -29 -5q-50 42 -129.5 172.5t-270.5 587.5z " />
<glyph unicode="w" horiz-adv-x="1201" d="M11 917l221 32l6 -7l-2 -22l-14 -61l5 -21l-7 -6l-1 -8q16 -268 61 -272q-2 -22 36 -53q76 114 89 235l5 49q3 32 3 65q0 121 -45 262l2 13q34 50 114 50q15 0 31 -2l98 -4l137 -351q92 -205 133 -260q28 68 60 226l-6 22l8 5q1 14 1 28q0 147 -86 353l-60 98l1 6l218 5 q149 -258 150 -469q0 -40 -6 -79l7 -8l-8 -6l-5 -41q-21 -197 -106 -346l-77 8l-6 8h-7l-1 -7l-6 8l-196 7l-178 299q-11 -110 -164 -297q-41 -41 -121 -41q-21 0 -44 3q-161 17 -226 374q-14 94 -14 176v29z" />
<glyph unicode="x" horiz-adv-x="678" d="M-33 1229q54 66 80 74l179 -78q33 -16 85 -234q73 148 160 270q1 4 19 4q43 0 180 -23l-1 -7q-199 -287 -266 -459q114 -232 258 -374q118 -134 225 -195q-2 -7 -66.5 -7t-191.5 7l-2 -8q-193 128 -324 286q-48 -118 -70 -261l-11 -39q-42 17 -199 23l47 238l61 225 q11 32 24 62q-132 277 -187 496z" />
<glyph unicode="y" horiz-adv-x="617" d="M9 880q4 42 77 42q13 0 28 -1l109 25l7 -7l-15 -156q-1 -14 -1 -29q0 -121 90 -251l20 -9q40 38 80 164l13 142q2 26 2 53q0 118 -45 258l1 14q27 59 131 59q19 0 39 -2l56 -6q19 -22 19 -110q0 -64 -10 -162q-23 -235 -100 -413q-42 -65 -82 -104l-35 -226l-37 -160 l-184 -30l-17 40q52 91 79 255l4 7q3 37 6 64q-86 9 -180 203q-56 172 -56 301q0 20 1 39z" />
<glyph unicode="z" horiz-adv-x="926" d="M-40 1135h6q247 -51 445 -72l322 -4l65 -7l25 -36q-6 -28 -6 -84q0 -21 1 -46l-4 -58q-32 -57 -94 -122q105 6 168 23l12 -1q3 -5 3 -12q0 -37 -87 -133l-11 -6q-114 -2 -216 -4q-108 -104 -240 -220l-13 -24q77 -9 177 -9q106 0 237 10q3 42 -69 125l21 24l46 -1 q36 6 66 6q62 0 102 -26q73 -213 73 -286q0 -39 -20 -39q-303 24 -530 24q-222 0 -371 -23l-39 32q1 8 1 16q0 47 -20 100q-7 13 -7 25q0 37 65 66q144 102 272 216l-81 9h-29l77 87l20 13l120 3q39 41 77.5 88.5t43.5 62.5v13l-83 2q-308 20 -490 85q-14 0 -35 183z M154 602q-22 3 -22 18q0 22 45 70l21 14l26 -2l50 1l-79 -88l-23 -15z" />
<glyph unicode="{" horiz-adv-x="485" d="M24 265v317q18 450 135 1020q6 42 110 86t509 3q29 -159 -22 -149q-243 7 -384 -31q-75 -532 -87 -818l-1 -472l27 -320q163 -30 326 -3q235 49 47 -180q-464 -34 -612 47z" />
<glyph unicode="|" horiz-adv-x="354" d="M48 1645q15 73 176 31q119 -922 39 -1758q-131 -98 -198 -25q69 842 -17 1752z" />
<glyph unicode="}" horiz-adv-x="485" d="M-304 1684q405 41 509 -3t110 -86q117 -570 129 -1020v-317l-42 -500q-148 -81 -612 -47q-188 229 47 180q163 -27 326 3l27 320v439q-13 319 -88 851q-141 38 -384 31q-51 -10 -22 149z" />
<glyph unicode="&#xa2;" horiz-adv-x="738" d="M-3 636.5q0 269.5 363 432.5q51 74 110 149q13 48 164 39l80 5l-2 -6q-43 -42 -114 -153q76 -11 228 -67l-113 -26q-115 -34 -245 -96q-277 -169 -253 -362q14 -94 57.5 -125.5t139.5 -23.5t193 158q65 25 101 -155q-78 -132 -248 -167l-14 -40l1 -21l-9 -6l-2 -8l-6 -42 l-9 -5l-2 -36l-11 -62l-9 -7l-1 -6q-30 24 -133 6l-10 -7l-6 2l-44 10q-3 107 33 235l-19 6q-220 109 -220 378.5z" />
<glyph unicode="&#xa6;" horiz-adv-x="354" d="M48 1645q15 73 176 31q119 -922 39 -1758q-131 -98 -198 -25q69 842 -17 1752z" />
<glyph unicode="&#xa9;" horiz-adv-x="1674" d="M100 718q0 148 55.5 283t158.5 238.5t239.5 160t284 56.5t282.5 -56.5t238 -159t159.5 -239.5t56.5 -283.5t-56.5 -281.5t-161.5 -240q-216 -214 -523 -214q-298 0 -516 216q-217 213 -217 520zM160 718q0 -279 199 -478q202 -198 475 -198q279 0 479 196 q201 203 201 480q0 134 -52 259.5t-146.5 220.5t-218.5 146.5t-259.5 51.5t-260.5 -51.5t-220 -147.5q-197 -199 -197 -479zM379 632.5q0 272.5 379 436.5q78 0 270 -90v-10l-178 -62q-277 -169 -253 -362q14 -94 57.5 -125.5t139.5 -23.5t193 158q65 25 101 -155 q-105 -179 -379 -179h-11l-99 31q-220 109 -220 381.5zM878 1089v10h70q71 0 260 -70l-110 -20q-220 52 -220 80z" />
<glyph unicode="&#xad;" horiz-adv-x="954" d="M89 660q18 60 89 53q76 -3 140.5 -3.5t239.5 12.5h5q170 24 296 53l-17 -153q-54 -24 -168.5 -26.5t-134.5 -9.5l-317 3l-32 -3l-12 1l-4 8l-46 -3l-36 16z" />
<glyph unicode="&#xae;" horiz-adv-x="1674" d="M100 718q0 148 55.5 283t158.5 238.5t239.5 160t284 56.5t282.5 -56.5t238 -159t159.5 -239.5t56.5 -283.5t-56 -281.5q-71 -169 -220 -292q1 -8 -15 -11q-194 -151 -450 -151q-298 0 -516 216q-217 213 -217 520zM160 742q0 -303 199 -502q202 -198 475 -198 q186 0 345 93q-35 4 -80 10q-220 132 -301.5 216t-115.5 159l-6 46q190 123 386 341l67 106q31 75 12 100q-11 23 -42 25q-288 5 -610 -109q21 -20 78 -143q123 -278 87 -747l-78 21h-99l31 157q0 384 -256 741v2q-92 -156 -92 -318zM282 1107q32 25 72 33q555 155 829 105 q158 -42 158 -131q-7 -219 -483 -579q130 -181 390 -354q143 109 214 279q52 123 52 257.5t-52 260t-146.5 220.5t-218.5 146.5t-259.5 51.5t-260.5 -52q-184 -75 -295 -237z" />
<glyph unicode="&#xb1;" horiz-adv-x="954" d="M76 918q18 60 89 53q76 -3 111.5 -3t71.5 1q-5 37 -10 77l8 162q-6 39 15 73l191 20l4 -20l-33 -55l-10 -141q7 -55 12 -106q10 0 20 1h5q170 24 296 53l-17 -153q-54 -24 -253 -30q-25 1 -43 -4q8 -230 -41 -364l-129 7q23 103 -2 357l-152 1l-32 -3l-12 1l-4 8l-46 -3 l-36 16zM77 333q18 60 89 53q76 -3 140.5 -3.5t239.5 12.5h5q170 24 296 53l-17 -153q-54 -24 -168.5 -26.5t-134.5 -9.5l-317 3l-32 -3l-12 1l-4 8l-46 -3l-36 16z" />
<glyph unicode="&#xb4;" horiz-adv-x="336" d="M-218 1022v7q52 56 136 83l90 -9q164 -18 337 -184q-2 -27 11 -29q-36 -108 -81 -103q-101 66 -493 235z" />
<glyph unicode="&#xb7;" horiz-adv-x="451" d="M114 817q30 122 105 104l45 4q111 -7 80 -107q-19 -124 -210 -118q-72 13 -20 117z" />
<glyph unicode="&#xc0;" d="M-152 246l2 14q97 102 157 221l-5 92l59 21l89 299h-7l7 7l18 166l-4 36l37 10q78 -44 183 -55v6l7 -6l7 -1l111 -5q110 -249 322 -533l120 -118q197 -139 264 -147l-1 -14q-58 6 -220 -25q-159 38 -356 214q-137 159 -228 353q-55 72 -53 90l-14 1l-8 -76l-32 -171 l119 1q60 -10 115 -96l7 -2l-2 -27q-294 7 -304 -87l-71 -146l17 -30l-10 -20l-81 16l-8 1zM88 1558v7q52 56 136 83l90 -9q164 -18 337 -184q-2 -27 11 -29q-36 -108 -81 -103q-101 66 -493 235z" />
<glyph unicode="&#xc1;" d="M-152 246l2 14q97 102 157 221l-5 92l59 21l89 299h-7l7 7l18 166l-4 36l37 10q78 -44 183 -55v6l7 -6l7 -1l111 -5q110 -249 322 -533l120 -118q197 -139 264 -147l-1 -14q-58 6 -220 -25q-159 38 -356 214q-137 159 -228 353q-55 72 -53 90l-14 1l-8 -76l-32 -171 l119 1q60 -10 115 -96l7 -2l-2 -27q-294 7 -304 -87l-71 -146l17 -30l-10 -20l-81 16l-8 1zM88 1558v7q52 56 136 83l90 -9q164 -18 337 -184q-2 -27 11 -29q-36 -108 -81 -103q-101 66 -493 235z" />
<glyph unicode="&#xc2;" d="M-152 246l2 14q97 102 157 221l-5 92l59 21l89 299h-7l7 7l18 166l-4 36l37 10q78 -44 183 -55v6l7 -6l7 -1l111 -5q110 -249 322 -533l120 -118q197 -139 264 -147l-1 -14q-58 6 -220 -25q-159 38 -356 214q-137 159 -228 353q-55 72 -53 90l-14 1l-8 -76l-32 -171 l119 1q60 -10 115 -96l7 -2l-2 -27q-294 7 -304 -87l-71 -146l17 -30l-10 -20l-81 16l-8 1zM125 1279q60 129 74 311l-8 113l19 -3q98 -24 180 -24l75 6q30 -30 121 -179q151 -199 -34 -220q-132 186 -191 249l-11 -12v-23l-48 -211z" />
<glyph unicode="&#xc4;" d="M-152 246l2 14q97 102 157 221l-5 92l59 21l89 299h-7l7 7l18 166l-4 36l37 10q78 -44 183 -55v6l7 -6l7 -1l111 -5q110 -249 322 -533l120 -118q197 -139 264 -147l-1 -14q-58 6 -220 -25q-159 38 -356 214q-137 159 -228 353q-55 72 -53 90l-14 1l-8 -76l-32 -171 l119 1q60 -10 115 -96l7 -2l-2 -27q-294 7 -304 -87l-71 -146l17 -30l-10 -20l-81 16l-8 1zM109 1443q30 122 105 104l45 4q111 -7 80 -107q-19 -124 -210 -118q-72 13 -20 117zM463 1443q30 122 105 104l45 4q111 -7 80 -107q-19 -124 -210 -118q-72 13 -20 117z" />
<glyph unicode="&#xc6;" horiz-adv-x="1210" d="M-152 246l2 14q97 102 157 221l-5 92l59 21l89 299h-7l7 7l18 166l-4 36l37 10q78 -44 183 -55v6l7 -6l7 -1l111 -5q1 -3 2 -5q109 20 266 61q299 105 331 154l71 -120l-1 -14q-268 -160 -612 -195q26 -49 55 -99q341 122 419 113l68 -77v-7q-7 -11 -209 -47l-227 -67 q33 -51 69 -104q215 101 548 149l113 16q71 -17 54 -100l-54 -12l-39 -3q-290 -38 -528 -180l116 -114q197 -139 264 -147l-1 -14q-58 6 -220 -25q-159 38 -356 214q-137 159 -228 353q-55 72 -53 90l-14 1l-8 -76l-32 -171l119 1q60 -10 115 -96l7 -2l-2 -27 q-294 7 -304 -87l-71 -146l17 -30l-10 -20l-81 16l-8 1z" />
<glyph unicode="&#xc8;" horiz-adv-x="917" d="M-5 782l8 5l1 8l-1 63l1 6l16 13l6 -8q115 -13 457 77q299 105 331 154l71 -120l-1 -14q-278 -166 -638 -197l-1 -15l46 -88l14 -2q360 130 441 121l68 -77v-7q-7 -11 -209 -47l-282 -83q7 -59 34 -136q231 138 638 197l113 16q71 -17 54 -100l-54 -12l-39 -3 q-348 -46 -621 -241l-101 -87l-181 19q-13 1 -11 23l8 5q16 258 -35 263l-58 48l1 8q1 10 59 28l1 14q3 21 -55 139l-71 -7zM88 1558v7q52 56 136 83l90 -9q164 -18 337 -184q-2 -27 11 -29q-36 -108 -81 -103q-101 66 -493 235z" />
<glyph unicode="&#xc9;" horiz-adv-x="917" d="M-5 782l8 5l1 8l-1 63l1 6l16 13l6 -8q115 -13 457 77q299 105 331 154l71 -120l-1 -14q-278 -166 -638 -197l-1 -15l46 -88l14 -2q360 130 441 121l68 -77v-7q-7 -11 -209 -47l-282 -83q7 -59 34 -136q231 138 638 197l113 16q71 -17 54 -100l-54 -12l-39 -3 q-348 -46 -621 -241l-101 -87l-181 19q-13 1 -11 23l8 5q16 258 -35 263l-58 48l1 8q1 10 59 28l1 14q3 21 -55 139l-71 -7zM88 1558v7q52 56 136 83l90 -9q164 -18 337 -184q-2 -27 11 -29q-36 -108 -81 -103q-101 66 -493 235z" />
<glyph unicode="&#xca;" horiz-adv-x="917" d="M-5 782l8 5l1 8l-1 63l1 6l16 13l6 -8q115 -13 457 77q299 105 331 154l71 -120l-1 -14q-278 -166 -638 -197l-1 -15l46 -88l14 -2q360 130 441 121l68 -77v-7q-7 -11 -209 -47l-282 -83q7 -59 34 -136q231 138 638 197l113 16q71 -17 54 -100l-54 -12l-39 -3 q-348 -46 -621 -241l-101 -87l-181 19q-13 1 -11 23l8 5q16 258 -35 263l-58 48l1 8q1 10 59 28l1 14q3 21 -55 139l-71 -7zM125 1279q60 129 74 311l-8 113l19 -3q98 -24 180 -24l75 6q30 -30 121 -179q151 -199 -34 -220q-132 186 -191 249l-11 -12v-23l-48 -211z" />
<glyph unicode="&#xcb;" horiz-adv-x="917" d="M-5 782l8 5l1 8l-1 63l1 6l16 13l6 -8q115 -13 457 77q299 105 331 154l71 -120l-1 -14q-278 -166 -638 -197l-1 -15l46 -88l14 -2q360 130 441 121l68 -77v-7q-7 -11 -209 -47l-282 -83q7 -59 34 -136q231 138 638 197l113 16q71 -17 54 -100l-54 -12l-39 -3 q-348 -46 -621 -241l-101 -87l-181 19q-13 1 -11 23l8 5q16 258 -35 263l-58 48l1 8q1 10 59 28l1 14q3 21 -55 139l-71 -7zM109 1443q30 122 105 104l45 4q111 -7 80 -107q-19 -124 -210 -118q-72 13 -20 117zM463 1443q30 122 105 104l45 4q111 -7 80 -107 q-19 -124 -210 -118q-72 13 -20 117z" />
<glyph unicode="&#xcc;" horiz-adv-x="396" d="M-81 1180v7q52 56 136 83l90 -9q164 -18 337 -184q-2 -27 11 -29q-36 -108 -81 -103q-101 66 -493 235zM-5 503l8 6l-4 35l2 14l8 6l-6 8l20 131l35 135l257 19l-66 -144q-36 -140 -56 -252l4 -106l13 -1l1 14l193 -36l-1 -6q-59 -63 -92 -137l-34 3q-62 7 -186 -36 q-67 8 -94 234z" />
<glyph unicode="&#xcd;" horiz-adv-x="396" d="M-81 1180v7q52 56 136 83l90 -9q164 -18 337 -184q-2 -27 11 -29q-36 -108 -81 -103q-101 66 -493 235zM-5 503l8 6l-4 35l2 14l8 6l-6 8l20 131l35 135l257 19l-66 -144q-36 -140 -56 -252l4 -106l13 -1l1 14l193 -36l-1 -6q-59 -63 -92 -137l-34 3q-62 7 -186 -36 q-67 8 -94 234z" />
<glyph unicode="&#xce;" horiz-adv-x="396" d="M-17 973q60 129 74 311l-8 113l19 -3q98 -24 180 -24l75 6q30 -30 121 -179q151 -199 -34 -220q-132 186 -191 249l-11 -12v-23l-48 -211zM-5 503l8 6l-4 35l2 14l8 6l-6 8l20 131l35 135l257 19l-66 -144q-36 -140 -56 -252l4 -106l13 -1l1 14l193 -36l-1 -6 q-59 -63 -92 -137l-34 3q-62 7 -186 -36q-67 8 -94 234z" />
<glyph unicode="&#xcf;" horiz-adv-x="396" d="M-36 1092q30 122 105 104l45 4q111 -7 80 -107q-19 -124 -210 -118q-72 13 -20 117zM-5 503l8 6l-4 35l2 14l8 6l-6 8l20 131l35 135l257 19l-66 -144q-36 -140 -56 -252l4 -106l13 -1l1 14l193 -36l-1 -6q-59 -63 -92 -137l-34 3q-62 7 -186 -36q-67 8 -94 234z M318 1092q30 122 105 104l45 4q111 -7 80 -107q-19 -124 -210 -118q-72 13 -20 117z" />
<glyph unicode="&#xd2;" horiz-adv-x="575" d="M-60 936l1 13l179 38l42 -5l6 -8l8 6l20 -2l7 -7l7 -1l7 5l6 -6l-1 -7l-179 -44l-49 12zM-9 1328v7q52 56 136 83l90 -9q164 -18 337 -184q-2 -27 11 -29q-36 -108 -81 -103q-101 66 -493 235zM3.5 682q9.5 84 107.5 159l7 -2q112 -62 108 -109l-55 -114q-10 -98 88 -163 q31 34 36 74l3 27l-3 35h7q-41 178 -141 260q-94 38 -92.5 50.5t194.5 49.5l14 -1q192 -116 223 -268l8 -57h-7v-70l-95 -165l-7 1q-101 -52 -180 -44q-141 15 -209 205q-16 48 -6.5 132z" />
<glyph unicode="&#xd3;" horiz-adv-x="575" d="M-60 936l1 13l179 38l42 -5l6 -8l8 6l20 -2l7 -7l7 -1l7 5l6 -6l-1 -7l-179 -44l-49 12zM-9 1328v7q52 56 136 83l90 -9q164 -18 337 -184q-2 -27 11 -29q-36 -108 -81 -103q-101 66 -493 235zM3.5 682q9.5 84 107.5 159l7 -2q112 -62 108 -109l-55 -114q-10 -98 88 -163 q31 34 36 74l3 27l-3 35h7q-41 178 -141 260q-94 38 -92.5 50.5t194.5 49.5l14 -1q192 -116 223 -268l8 -57h-7v-70l-95 -165l-7 1q-101 -52 -180 -44q-141 15 -209 205q-16 48 -6.5 132z" />
<glyph unicode="&#xd4;" horiz-adv-x="575" d="M-60 936l1 13l179 38l42 -5l6 -8l8 6l20 -2l7 -7l7 -1l7 5l6 -6l-1 -7l-179 -44l-49 12zM3.5 682q9.5 84 107.5 159l7 -2q112 -62 108 -109l-55 -114q-10 -98 88 -163q31 34 36 74l3 27l-3 35h7q-41 178 -141 260q-94 38 -92.5 50.5t194.5 49.5l14 -1q192 -116 223 -268 l8 -57h-7v-70l-95 -165l-7 1q-101 -52 -180 -44q-141 15 -209 205q-16 48 -6.5 132zM10 1167q60 129 74 311l-8 113l19 -3q98 -24 180 -24l75 6q30 -30 121 -179q151 -199 -34 -220q-132 186 -191 249l-11 -12v-23l-48 -211z" />
<glyph unicode="&#xd6;" horiz-adv-x="575" d="M-60 936l1 13l179 38l42 -5l6 -8l8 6l20 -2l7 -7l7 -1l7 5l6 -6l-1 -7l-179 -44l-49 12zM3 1259q30 122 105 104l45 4q111 -7 80 -107q-19 -124 -210 -118q-72 13 -20 117zM3.5 682q9.5 84 107.5 159l7 -2q112 -62 108 -109l-55 -114q-10 -98 88 -163q31 34 36 74l3 27 l-3 35h7q-41 178 -141 260q-94 38 -92.5 50.5t194.5 49.5l14 -1q192 -116 223 -268l8 -57h-7v-70l-95 -165l-7 1q-101 -52 -180 -44q-141 15 -209 205q-16 48 -6.5 132zM357 1259q30 122 105 104l45 4q111 -7 80 -107q-19 -124 -210 -118q-72 13 -20 117z" />
<glyph unicode="&#xd7;" horiz-adv-x="790" d="M32 740q140 17 235 55q6 88 -4 198q6 13 34 25q32 -6 64.5 -14.5t52.5 -19t24 -38.5q-1 -67 6 -104q118 35 162 76q5 2 21 -17.5t52 -38t38 -29.5q0 -1 -3 -4q-99 -69 -231 -108q98 -169 228 -299q4 -4 -3 -6q-3 0 -7 1q-98 0 -140 20t-48 26q-34 38 -117 170 q-23 -130 -77 -236q-5 -10 -78 16t-68 36q59 110 77 229q-30 -5 -73.5 -12.5t-54.5 -4.5q-68 30 -86 67q-18 9 -4 12z" />
<glyph unicode="&#xd9;" horiz-adv-x="666" d="M9 880q5 50 105 41l109 25l7 -7l-15 -156q-12 -135 89 -280l20 -9q40 38 80 164l13 142q13 138 -43 311l1 14q32 69 170 57l56 -6q32 -37 9 -272t-100 -413q-108 -168 -201 -160l-64 6q-87 8 -181 203q-65 198 -55 340zM12 1564v7q52 56 136 83l90 -9q164 -18 337 -184 q-2 -27 11 -29q-36 -108 -81 -103q-101 66 -493 235z" />
<glyph unicode="&#xda;" horiz-adv-x="666" d="M9 880q5 50 105 41l109 25l7 -7l-15 -156q-12 -135 89 -280l20 -9q40 38 80 164l13 142q13 138 -43 311l1 14q32 69 170 57l56 -6q32 -37 9 -272t-100 -413q-108 -168 -201 -160l-64 6q-87 8 -181 203q-65 198 -55 340zM12 1564v7q52 56 136 83l90 -9q164 -18 337 -184 q-2 -27 11 -29q-36 -108 -81 -103q-101 66 -493 235z" />
<glyph unicode="&#xdb;" horiz-adv-x="666" d="M9 880q5 50 105 41l109 25l7 -7l-15 -156q-12 -135 89 -280l20 -9q40 38 80 164l13 142q13 138 -43 311l1 14q32 69 170 57l56 -6q32 -37 9 -272t-100 -413q-108 -168 -201 -160l-64 6q-87 8 -181 203q-65 198 -55 340zM28 1273q60 129 74 311l-8 113l19 -3 q98 -24 180 -24l75 6q30 -30 121 -179q151 -199 -34 -220q-132 186 -191 249l-11 -12v-23l-48 -211z" />
<glyph unicode="&#xdc;" horiz-adv-x="666" d="M9 880q5 50 105 41l109 25l7 -7l-15 -156q-12 -135 89 -280l20 -9q40 38 80 164l13 142q13 138 -43 311l1 14q32 69 170 57l56 -6q32 -37 9 -272t-100 -413q-108 -168 -201 -160l-64 6q-87 8 -181 203q-65 198 -55 340zM30 1433q30 122 105 104l45 4q111 -7 80 -107 q-19 -124 -210 -118q-72 13 -20 117zM384 1433q30 122 105 104l45 4q111 -7 80 -107q-19 -124 -210 -118q-72 13 -20 117z" />
<glyph unicode="&#xe0;" d="M-152 246l2 14q97 102 157 221l-5 92l59 21l89 299h-7l7 7l18 166l-4 36l37 10q78 -44 183 -55v6l7 -6l7 -1l111 -5q110 -249 322 -533l120 -118q197 -139 264 -147l-1 -14q-58 6 -220 -25q-159 38 -356 214q-137 159 -228 353q-55 72 -53 90l-14 1l-8 -76l-32 -171 l119 1q60 -10 115 -96l7 -2l-2 -27q-294 7 -304 -87l-71 -146l17 -30l-10 -20l-81 16l-8 1zM88 1558v7q52 56 136 83l90 -9q164 -18 337 -184q-2 -27 11 -29q-36 -108 -81 -103q-101 66 -493 235z" />
<glyph unicode="&#xe1;" d="M-152 246l2 14q97 102 157 221l-5 92l59 21l89 299h-7l7 7l18 166l-4 36l37 10q78 -44 183 -55v6l7 -6l7 -1l111 -5q110 -249 322 -533l120 -118q197 -139 264 -147l-1 -14q-58 6 -220 -25q-159 38 -356 214q-137 159 -228 353q-55 72 -53 90l-14 1l-8 -76l-32 -171 l119 1q60 -10 115 -96l7 -2l-2 -27q-294 7 -304 -87l-71 -146l17 -30l-10 -20l-81 16l-8 1zM88 1558v7q52 56 136 83l90 -9q164 -18 337 -184q-2 -27 11 -29q-36 -108 -81 -103q-101 66 -493 235z" />
<glyph unicode="&#xe2;" d="M-152 246l2 14q97 102 157 221l-5 92l59 21l89 299h-7l7 7l18 166l-4 36l37 10q78 -44 183 -55v6l7 -6l7 -1l111 -5q110 -249 322 -533l120 -118q197 -139 264 -147l-1 -14q-58 6 -220 -25q-159 38 -356 214q-137 159 -228 353q-55 72 -53 90l-14 1l-8 -76l-32 -171 l119 1q60 -10 115 -96l7 -2l-2 -27q-294 7 -304 -87l-71 -146l17 -30l-10 -20l-81 16l-8 1zM125 1279q60 129 74 311l-8 113l19 -3q98 -24 180 -24l75 6q30 -30 121 -179q151 -199 -34 -220q-132 186 -191 249l-11 -12v-23l-48 -211z" />
<glyph unicode="&#xe4;" d="M-152 246l2 14q97 102 157 221l-5 92l59 21l89 299h-7l7 7l18 166l-4 36l37 10q78 -44 183 -55v6l7 -6l7 -1l111 -5q110 -249 322 -533l120 -118q197 -139 264 -147l-1 -14q-58 6 -220 -25q-159 38 -356 214q-137 159 -228 353q-55 72 -53 90l-14 1l-8 -76l-32 -171 l119 1q60 -10 115 -96l7 -2l-2 -27q-294 7 -304 -87l-71 -146l17 -30l-10 -20l-81 16l-8 1zM109 1443q30 122 105 104l45 4q111 -7 80 -107q-19 -124 -210 -118q-72 13 -20 117zM463 1443q30 122 105 104l45 4q111 -7 80 -107q-19 -124 -210 -118q-72 13 -20 117z" />
<glyph unicode="&#xe6;" horiz-adv-x="1210" d="M-152 246l2 14q97 102 157 221l-5 92l59 21l89 299h-7l7 7l18 166l-4 36l37 10q78 -44 183 -55v6l7 -6l7 -1l111 -5q1 -3 2 -5q109 20 266 61q299 105 331 154l71 -120l-1 -14q-268 -160 -612 -195q26 -49 55 -99q341 122 419 113l68 -77v-7q-7 -11 -209 -47l-227 -67 q33 -51 69 -104q215 101 548 149l113 16q71 -17 54 -100l-54 -12l-39 -3q-290 -38 -528 -180l116 -114q197 -139 264 -147l-1 -14q-58 6 -220 -25q-159 38 -356 214q-137 159 -228 353q-55 72 -53 90l-14 1l-8 -76l-32 -171l119 1q60 -10 115 -96l7 -2l-2 -27 q-294 7 -304 -87l-71 -146l17 -30l-10 -20l-81 16l-8 1z" />
<glyph unicode="&#xe8;" horiz-adv-x="917" d="M-5 782l8 5l1 8l-1 63l1 6l16 13l6 -8q115 -13 457 77q299 105 331 154l71 -120l-1 -14q-278 -166 -638 -197l-1 -15l46 -88l14 -2q360 130 441 121l68 -77v-7q-7 -11 -209 -47l-282 -83q7 -59 34 -136q231 138 638 197l113 16q71 -17 54 -100l-54 -12l-39 -3 q-348 -46 -621 -241l-101 -87l-181 19q-13 1 -11 23l8 5q16 258 -35 263l-58 48l1 8q1 10 59 28l1 14q3 21 -55 139l-71 -7zM88 1558v7q52 56 136 83l90 -9q164 -18 337 -184q-2 -27 11 -29q-36 -108 -81 -103q-101 66 -493 235z" />
<glyph unicode="&#xe9;" horiz-adv-x="917" d="M-5 782l8 5l1 8l-1 63l1 6l16 13l6 -8q115 -13 457 77q299 105 331 154l71 -120l-1 -14q-278 -166 -638 -197l-1 -15l46 -88l14 -2q360 130 441 121l68 -77v-7q-7 -11 -209 -47l-282 -83q7 -59 34 -136q231 138 638 197l113 16q71 -17 54 -100l-54 -12l-39 -3 q-348 -46 -621 -241l-101 -87l-181 19q-13 1 -11 23l8 5q16 258 -35 263l-58 48l1 8q1 10 59 28l1 14q3 21 -55 139l-71 -7zM88 1558v7q52 56 136 83l90 -9q164 -18 337 -184q-2 -27 11 -29q-36 -108 -81 -103q-101 66 -493 235z" />
<glyph unicode="&#xea;" horiz-adv-x="917" d="M-5 782l8 5l1 8l-1 63l1 6l16 13l6 -8q115 -13 457 77q299 105 331 154l71 -120l-1 -14q-278 -166 -638 -197l-1 -15l46 -88l14 -2q360 130 441 121l68 -77v-7q-7 -11 -209 -47l-282 -83q7 -59 34 -136q231 138 638 197l113 16q71 -17 54 -100l-54 -12l-39 -3 q-348 -46 -621 -241l-101 -87l-181 19q-13 1 -11 23l8 5q16 258 -35 263l-58 48l1 8q1 10 59 28l1 14q3 21 -55 139l-71 -7zM125 1279q60 129 74 311l-8 113l19 -3q98 -24 180 -24l75 6q30 -30 121 -179q151 -199 -34 -220q-132 186 -191 249l-11 -12v-23l-48 -211z" />
<glyph unicode="&#xeb;" horiz-adv-x="917" d="M-5 782l8 5l1 8l-1 63l1 6l16 13l6 -8q115 -13 457 77q299 105 331 154l71 -120l-1 -14q-278 -166 -638 -197l-1 -15l46 -88l14 -2q360 130 441 121l68 -77v-7q-7 -11 -209 -47l-282 -83q7 -59 34 -136q231 138 638 197l113 16q71 -17 54 -100l-54 -12l-39 -3 q-348 -46 -621 -241l-101 -87l-181 19q-13 1 -11 23l8 5q16 258 -35 263l-58 48l1 8q1 10 59 28l1 14q3 21 -55 139l-71 -7zM109 1443q30 122 105 104l45 4q111 -7 80 -107q-19 -124 -210 -118q-72 13 -20 117zM463 1443q30 122 105 104l45 4q111 -7 80 -107 q-19 -124 -210 -118q-72 13 -20 117z" />
<glyph unicode="&#xec;" horiz-adv-x="396" d="M-81 1180v7q52 56 136 83l90 -9q164 -18 337 -184q-2 -27 11 -29q-36 -108 -81 -103q-101 66 -493 235zM-5 503l8 6l-4 35l2 14l8 6l-6 8l20 131l35 135l257 19l-66 -144q-36 -140 -56 -252l4 -106l13 -1l1 14l193 -36l-1 -6q-59 -63 -92 -137l-34 3q-62 7 -186 -36 q-67 8 -94 234z" />
<glyph unicode="&#xed;" horiz-adv-x="396" d="M-81 1180v7q52 56 136 83l90 -9q164 -18 337 -184q-2 -27 11 -29q-36 -108 -81 -103q-101 66 -493 235zM-5 503l8 6l-4 35l2 14l8 6l-6 8l20 131l35 135l257 19l-66 -144q-36 -140 -56 -252l4 -106l13 -1l1 14l193 -36l-1 -6q-59 -63 -92 -137l-34 3q-62 7 -186 -36 q-67 8 -94 234z" />
<glyph unicode="&#xee;" horiz-adv-x="396" d="M-17 973q60 129 74 311l-8 113l19 -3q98 -24 180 -24l75 6q30 -30 121 -179q151 -199 -34 -220q-132 186 -191 249l-11 -12v-23l-48 -211zM-5 503l8 6l-4 35l2 14l8 6l-6 8l20 131l35 135l257 19l-66 -144q-36 -140 -56 -252l4 -106l13 -1l1 14l193 -36l-1 -6 q-59 -63 -92 -137l-34 3q-62 7 -186 -36q-67 8 -94 234z" />
<glyph unicode="&#xef;" horiz-adv-x="396" d="M-36 1092q30 122 105 104l45 4q111 -7 80 -107q-19 -124 -210 -118q-72 13 -20 117zM-5 503l8 6l-4 35l2 14l8 6l-6 8l20 131l35 135l257 19l-66 -144q-36 -140 -56 -252l4 -106l13 -1l1 14l193 -36l-1 -6q-59 -63 -92 -137l-34 3q-62 7 -186 -36q-67 8 -94 234z M318 1092q30 122 105 104l45 4q111 -7 80 -107q-19 -124 -210 -118q-72 13 -20 117z" />
<glyph unicode="&#xf2;" horiz-adv-x="575" d="M-60 936l1 13l179 38l42 -5l6 -8l8 6l20 -2l7 -7l7 -1l7 5l6 -6l-1 -7l-179 -44l-49 12zM-9 1328v7q52 56 136 83l90 -9q164 -18 337 -184q-2 -27 11 -29q-36 -108 -81 -103q-101 66 -493 235zM3.5 682q9.5 84 107.5 159l7 -2q112 -62 108 -109l-55 -114q-10 -98 88 -163 q31 34 36 74l3 27l-3 35h7q-41 178 -141 260q-94 38 -92.5 50.5t194.5 49.5l14 -1q192 -116 223 -268l8 -57h-7v-70l-95 -165l-7 1q-101 -52 -180 -44q-141 15 -209 205q-16 48 -6.5 132z" />
<glyph unicode="&#xf3;" horiz-adv-x="575" d="M-60 936l1 13l179 38l42 -5l6 -8l8 6l20 -2l7 -7l7 -1l7 5l6 -6l-1 -7l-179 -44l-49 12zM-9 1328v7q52 56 136 83l90 -9q164 -18 337 -184q-2 -27 11 -29q-36 -108 -81 -103q-101 66 -493 235zM3.5 682q9.5 84 107.5 159l7 -2q112 -62 108 -109l-55 -114q-10 -98 88 -163 q31 34 36 74l3 27l-3 35h7q-41 178 -141 260q-94 38 -92.5 50.5t194.5 49.5l14 -1q192 -116 223 -268l8 -57h-7v-70l-95 -165l-7 1q-101 -52 -180 -44q-141 15 -209 205q-16 48 -6.5 132z" />
<glyph unicode="&#xf4;" horiz-adv-x="575" d="M-60 936l1 13l179 38l42 -5l6 -8l8 6l20 -2l7 -7l7 -1l7 5l6 -6l-1 -7l-179 -44l-49 12zM3.5 682q9.5 84 107.5 159l7 -2q112 -62 108 -109l-55 -114q-10 -98 88 -163q31 34 36 74l3 27l-3 35h7q-41 178 -141 260q-94 38 -92.5 50.5t194.5 49.5l14 -1q192 -116 223 -268 l8 -57h-7v-70l-95 -165l-7 1q-101 -52 -180 -44q-141 15 -209 205q-16 48 -6.5 132zM10 1167q60 129 74 311l-8 113l19 -3q98 -24 180 -24l75 6q30 -30 121 -179q151 -199 -34 -220q-132 186 -191 249l-11 -12v-23l-48 -211z" />
<glyph unicode="&#xf6;" horiz-adv-x="575" d="M-60 936l1 13l179 38l42 -5l6 -8l8 6l20 -2l7 -7l7 -1l7 5l6 -6l-1 -7l-179 -44l-49 12zM3 1259q30 122 105 104l45 4q111 -7 80 -107q-19 -124 -210 -118q-72 13 -20 117zM3.5 682q9.5 84 107.5 159l7 -2q112 -62 108 -109l-55 -114q-10 -98 88 -163q31 34 36 74l3 27 l-3 35h7q-41 178 -141 260q-94 38 -92.5 50.5t194.5 49.5l14 -1q192 -116 223 -268l8 -57h-7v-70l-95 -165l-7 1q-101 -52 -180 -44q-141 15 -209 205q-16 48 -6.5 132zM357 1259q30 122 105 104l45 4q111 -7 80 -107q-19 -124 -210 -118q-72 13 -20 117z" />
<glyph unicode="&#xf7;" horiz-adv-x="954" d="M89 660q18 60 89 53q76 -3 140.5 -3.5t239.5 12.5h5q170 24 296 53l-17 -153q-54 -24 -168.5 -26.5t-134.5 -9.5l-317 3l-32 -3l-12 1l-4 8l-46 -3l-36 16zM339 348q30 122 105 104l45 4q111 -7 80 -107q-19 -124 -210 -118q-72 13 -20 117zM363 938q30 122 105 104l45 4 q111 -7 80 -107q-19 -124 -210 -118q-72 13 -20 117z" />
<glyph unicode="&#xf9;" horiz-adv-x="666" d="M9 880q5 50 105 41l109 25l7 -7l-15 -156q-12 -135 89 -280l20 -9q40 38 80 164l13 142q13 138 -43 311l1 14q32 69 170 57l56 -6q32 -37 9 -272t-100 -413q-108 -168 -201 -160l-64 6q-87 8 -181 203q-65 198 -55 340zM12 1564v7q52 56 136 83l90 -9q164 -18 337 -184 q-2 -27 11 -29q-36 -108 -81 -103q-101 66 -493 235z" />
<glyph unicode="&#xfa;" horiz-adv-x="666" d="M9 880q5 50 105 41l109 25l7 -7l-15 -156q-12 -135 89 -280l20 -9q40 38 80 164l13 142q13 138 -43 311l1 14q32 69 170 57l56 -6q32 -37 9 -272t-100 -413q-108 -168 -201 -160l-64 6q-87 8 -181 203q-65 198 -55 340zM12 1564v7q52 56 136 83l90 -9q164 -18 337 -184 q-2 -27 11 -29q-36 -108 -81 -103q-101 66 -493 235z" />
<glyph unicode="&#xfb;" horiz-adv-x="666" d="M9 880q5 50 105 41l109 25l7 -7l-15 -156q-12 -135 89 -280l20 -9q40 38 80 164l13 142q13 138 -43 311l1 14q32 69 170 57l56 -6q32 -37 9 -272t-100 -413q-108 -168 -201 -160l-64 6q-87 8 -181 203q-65 198 -55 340zM28 1273q60 129 74 311l-8 113l19 -3 q98 -24 180 -24l75 6q30 -30 121 -179q151 -199 -34 -220q-132 186 -191 249l-11 -12v-23l-48 -211z" />
<glyph unicode="&#xfc;" horiz-adv-x="666" d="M9 880q5 50 105 41l109 25l7 -7l-15 -156q-12 -135 89 -280l20 -9q40 38 80 164l13 142q13 138 -43 311l1 14q32 69 170 57l56 -6q32 -37 9 -272t-100 -413q-108 -168 -201 -160l-64 6q-87 8 -181 203q-65 198 -55 340zM30 1433q30 122 105 104l45 4q111 -7 80 -107 q-19 -124 -210 -118q-72 13 -20 117zM384 1433q30 122 105 104l45 4q111 -7 80 -107q-19 -124 -210 -118q-72 13 -20 117z" />
<glyph unicode="&#x2000;" horiz-adv-x="891" />
<glyph unicode="&#x2001;" horiz-adv-x="1782" />
<glyph unicode="&#x2002;" horiz-adv-x="891" />
<glyph unicode="&#x2003;" horiz-adv-x="1782" />
<glyph unicode="&#x2004;" horiz-adv-x="594" />
<glyph unicode="&#x2005;" horiz-adv-x="445" />
<glyph unicode="&#x2006;" horiz-adv-x="297" />
<glyph unicode="&#x2007;" horiz-adv-x="297" />
<glyph unicode="&#x2008;" horiz-adv-x="222" />
<glyph unicode="&#x2009;" horiz-adv-x="356" />
<glyph unicode="&#x200a;" horiz-adv-x="99" />
<glyph unicode="&#x2010;" horiz-adv-x="954" d="M89 660q18 60 89 53q76 -3 140.5 -3.5t239.5 12.5h5q170 24 296 53l-17 -153q-54 -24 -168.5 -26.5t-134.5 -9.5l-317 3l-32 -3l-12 1l-4 8l-46 -3l-36 16z" />
<glyph unicode="&#x2011;" horiz-adv-x="954" d="M89 660q18 60 89 53q76 -3 140.5 -3.5t239.5 12.5h5q170 24 296 53l-17 -153q-54 -24 -168.5 -26.5t-134.5 -9.5l-317 3l-32 -3l-12 1l-4 8l-46 -3l-36 16z" />
<glyph unicode="&#x2012;" horiz-adv-x="954" d="M89 660q18 60 89 53q76 -3 140.5 -3.5t239.5 12.5h5q170 24 296 53l-17 -153q-54 -24 -168.5 -26.5t-134.5 -9.5l-317 3l-32 -3l-12 1l-4 8l-46 -3l-36 16z" />
<glyph unicode="&#x2013;" horiz-adv-x="1208" d="M89 660q24 60 118 53q101 -3 187 -3.5t319 12.5h6q226 24 394 53l-23 -153q-71 -24 -223.5 -26.5t-179.5 -9.5l-421 3l-43 -3l-16 1l-5 8l-61 -3l-48 16z" />
<glyph unicode="&#x2014;" horiz-adv-x="2232" d="M89 660q48 60 237 53q202 -3 373.5 -3.5t636.5 12.5h14q452 24 787 53l-45 -153q-144 -24 -448.5 -26.5t-357.5 -9.5l-843 3l-85 -3l-32 1l-11 8l-122 -3l-96 16z" />
<glyph unicode="&#x2018;" horiz-adv-x="629" d="M-369 1340q102 102 219 88q199 -20 642 -310q154 -126 228 -272l-2 -19q-3 -26 -171 -46q-70 76 -90 116q-276 240 -404 272q-245 125 -412 143z" />
<glyph unicode="&#x2019;" horiz-adv-x="629" d="M-369 1340q102 102 219 88q199 -20 642 -310q154 -126 228 -272l-2 -19q-3 -26 -171 -46q-70 76 -90 116q-276 240 -404 272q-245 125 -412 143z" />
<glyph unicode="&#x201a;" horiz-adv-x="914" d="M-148 568q102 102 219 88q199 -20 642 -310q154 -126 228 -272l-2 -19q-3 -26 -171 -46q-70 76 -90 116q-276 240 -404 272q-245 125 -412 143z" />
<glyph unicode="&#x201c;" horiz-adv-x="629" d="M-369 1340q102 102 219 88q199 -20 642 -310q154 -126 228 -272l-2 -19q-3 -26 -171 -46q-70 76 -90 116q-276 240 -404 272q-245 125 -412 143zM-263 1028v7q52 56 136 83l90 -9q164 -18 337 -184q-2 -27 11 -29q-36 -108 -81 -103q-101 66 -493 235z" />
<glyph unicode="&#x201d;" horiz-adv-x="629" d="M-369 1340q102 102 219 88q199 -20 642 -310q154 -126 228 -272l-2 -19q-3 -26 -171 -46q-70 76 -90 116q-276 240 -404 272q-245 125 -412 143zM-263 1028v7q52 56 136 83l90 -9q164 -18 337 -184q-2 -27 11 -29q-36 -108 -81 -103q-101 66 -493 235z" />
<glyph unicode="&#x201e;" horiz-adv-x="914" d="M-148 568q102 102 219 88q199 -20 642 -310q154 -126 228 -272l-2 -19q-3 -26 -171 -46q-70 76 -90 116q-276 240 -404 272q-245 125 -412 143zM-60 257v7q52 56 136 83l90 -9q164 -18 337 -184q-2 -27 11 -29q-36 -108 -81 -103q-101 66 -493 235z" />
<glyph unicode="&#x202f;" horiz-adv-x="356" />
<glyph unicode="&#x205f;" horiz-adv-x="445" />
<glyph unicode="&#xe000;" horiz-adv-x="1305" d="M0 0v1305h1305v-1305h-1305z" />
</font>
</defs>
</svg>
